×

¿Problemas para descargar con Mozilla, EDGE? Deshabilita la opción "Abrir vinculos en una pestaña nueva" tal como lo muestra ésta imagen.

Shaun El Cordero: Farmageddon (2019) 1080p

1.643 vistas

Información de Shaun El Cordero: Farmageddon (2019) 1080p

Datos de la película

  • Calidad: 1080p
  • Audio: Ingles AC3 5.1 BLURAY
  • Subtitulos: No
  • Resolución: 1920x804p
  • Formato: MKV
  • Codec: H.264
  • Encoder: CinefiloCool
  • Mediainfo: Clic para Mostrar Datos Ver
  • Shaun El Cordero - Farmageddon (2019) 1080p Eng-CMHDD.mkv
    Format                      : Matroska
    Format version              : Version 4
    File size                   : 2.36 GiB
    Duration                    : 1 h 26 min
    Overall bit rate            : 3 890 kb/s
    Movie name                  : CinemaniaHDD.Net
    Encoded date                : UTC 2020-02-01 00:31:09
    Writing application         : mkvmerge v42.0.0 ('Overtime') 64-bit
    Writing library             : libebml v1.3.10 + libmatroska v1.5.2
    Attachments                 : CINEMANIAHD.png

    Video
    ID                          : 1
    Format                      : AVC
    Format/Info                 : Advanced Video Codec
    Format profile              : High@L4.1
    Format settings             : CABAC / 5 Ref Frames
    Format settings, CABAC      : Yes
    Format settings, ReFrames   : 5 frames
    Codec ID                    : V_MPEG4/ISO/AVC
    Duration                    : 1 h 26 min
    Bit rate                    : 3 500 kb/s
    Width                       : 1 920 pixels
    Height                      : 804 pixels
    Display aspect ratio        : 2.40:1
    Frame rate mode             : Constant
    Frame rate                  : 24.000 FPS
    Color space                 : YUV
    Chroma subsampling          : 4:2:0
    Bit depth                   : 8 bits
    Scan type                   : Progressive
    Bits/(Pixel*Frame)          : 0.094
    Stream size                 : 2.09 GiB (88%)
    Title                       : HD1080p [Bluray]
    Writing library             : x264 core 157 r2935 545de2f
    Encoding settings           : cabac=1 / ref=5 / deblock=1:1:1 / analyse=0x3:0x113 / me=hex / subme=8 / psy=1 / psy_rd=0.40:0.00 / mixed_ref=1 / me_range=16 / chroma_me=1 / trellis=2 / 8x8dct=1 / cqm=0 / deadzone=21,11 / fast_pskip=1 / chroma_qp_offset=-2 / threads=25 / lookahead_threads=4 / sliced_threads=0 / nr=0 / decimate=1 / interlaced=0 / bluray_compat=0 / constrained_intra=0 / bframes=5 / b_pyramid=2 / b_adapt=1 / b_bias=0 / direct=3 / weightb=1 / open_gop=0 / weightp=2 / keyint=240 / keyint_min=24 / scenecut=40 / intra_refresh=0 / rc_lookahead=50 / rc=abr / mbtree=1 / bitrate=3500 / ratetol=1.0 / qcomp=0.60 / qpmin=0 / qpmax=69 / qpstep=4 / vbv_maxrate=62500 / vbv_bufsize=78125 / nal_hrd=none / filler=0 / ip_ratio=1.40 / aq=1:0.60
    Default                     : Yes
    Forced                      : Yes
    Color range                 : Limited
    Color primaries             : BT.709
    Transfer characteristics    : BT.709
    Matrix coefficients         : BT.709

    Audio
    ID                          : 2
    Format                      : AC-3
    Format/Info                 : Audio Coding 3
    Commercial name             : Dolby Digital
    Codec ID                    : A_AC3
    Duration                    : 1 h 26 min
    Bit rate mode               : Constant
    Bit rate                    : 448 kb/s
    Channel(s)                  : 6 channels
    Channel layout              : L R C LFE Ls Rs
    Sampling rate               : 48.0 kHz
    Frame rate                  : 31.250 FPS (1536 SPF)
    Bit depth                   : 16 bits
    Compression mode            : Lossy
    Delay relative to video     : -5 ms
    Stream size                 : 278 MiB (12%)
    Title                       : AC3_5.1_Bluray_Eng
    Language                    : English
    Service kind                : Complete Main
    Default                     : Yes
    Forced                      : No

    Menu
    00:00:00.000                : :Chapter 1
    00:06:22.208                : :Chapter 2
    00:10:49.375                : :Chapter 3
    00:17:31.500                : :Chapter 4
    00:22:46.125                : :Chapter 5
    00:32:52.042                : :Chapter 6
    00:38:18.958                : :Chapter 7
    00:44:27.667                : :Chapter 8
    00:54:43.917                : :Chapter 9
    01:00:59.208                : :Chapter 10
    01:05:47.750                : :Chapter 11
    01:12:25.042                : :Chapter 12

  • Peso: 2.36 GiB

Sinopsis

Descargar Shaun El Cordero: Farmageddon (2019) 1080p. Unas extrañas luces planean sobre el cielo del tranquilo Mossingham anunciando la llegada de visitantes de una lejana galaxia, pero en la granja Mossy Bottom la oveja Shaun y el resto del rebaño siguen haciendo de las suyas…muy a pesar de Bitzer, su perro pastor. Tras esta incursión, una adorable extraterrestre de asombrosos poderes se queda en tierra, y… ¡Shaun ve en ella una oportunidad de diversión alienígena! Pero antes ha de evitar que su nueva amiga sea capturada por una siniestra organización. ¿Estará preparado el rebaño para afrontar una misión de dimensiones… astronómicas?

 

Ficha técnica

Video trailer de la película

Enlaces de descarga

Rip de Bluray

Descargar Shaun El Cordero: Farmageddon (2019) 1080p




Aportes de DPeliculasHDmega la pass es:dpeliculashdmega.org Aportes de CinemaniaHD la pass es:cinemaniahdd.com Aportes recientes:cinemaniahdd.net
Guardado en : Animación , Comedia , Familia , HD 1080p

Películas relacionadas

  • Pobres criaturas (2023) WEB-DL 4K UHD HDR Latino

    Pobres criaturas (2023) WEB-DL 4K UHD HDR Latino

    2023
    Pobres criaturas (2023) WEB-DL 4K UHD HDR Latino

    2h 21m 2023

    Descargar Pobres criaturas (2023) WEB-DL 4K UHD HDR Latino. Bella Baxter es una joven revivida por el...

    Director: Yorgos Lanthimos

    Género: 4K HDR

    Actores: Zen Joshua Poisson

  • Pobres criaturas (2023) WEB-DL 1080p Latino

    Pobres criaturas (2023) WEB-DL 1080p Latino

    2023
    Pobres criaturas (2023) WEB-DL 1080p Latino

    2h 21m 2023

    Descargar Pobres criaturas (2023) WEB-DL 1080p Latino. Bella Baxter es una joven revivida por el brillante...

    Director: Yorgos Lanthimos

    Género: Ciencia ficción

    Actores: Zen Joshua Poisson

  • Wonka (2023) Full HD 1080p Latino-CMHDD

    Wonka (2023) Full HD 1080p Latino-CMHDD

    2023
    Wonka (2023) Full HD 1080p Latino-CMHDD

    1h 57m 2023

    Descargar Wonka (2023) Full HD 1080p Latino-CMHDD. Basada en el personaje que protagoniza "Charlie y...

    Director: Zoe Morgan

    Género: Comedia

    Actores: Tracy Ifeachor

  • Wonka (2023) 1080p Latino-CMHDD

    Wonka (2023) 1080p Latino-CMHDD

    2023
    Wonka (2023) 1080p Latino-CMHDD

    1h 57m 2023

    Descargar Wonka (2023) 1080p Latino-CMHDD. Basada en el personaje que protagoniza "Charlie y la fábrica...

    Director: Zoe Morgan

    Género: Comedia

    Actores: Tracy Ifeachor

  • Next Goal Wins (2023) 1080p Latino-CMHDD

    Next Goal Wins (2023) 1080p Latino-CMHDD

    2023
    Next Goal Wins (2023) 1080p Latino-CMHDD

    1h 44m 2023

    Descargar Next Goal Wins (2023) 1080p Latino-CMHDD. Drama deportivo que cuenta la historia del entrenador...

    Director: Zack Earl Edwards

    Género: Comedia

    Actores: William Chun

descargar Shaun El Cordero: Farmageddon (2019) 1080p 1080p 1080p gratis, Shaun El Cordero: Farmageddon (2019) 1080p 1080p mega 1 link, Shaun El Cordero: Farmageddon (2019) 1080p 1080p pelicula completa, descargar Shaun El Cordero: Farmageddon (2019) 1080p 1080p gratis en mega.

Shaun El Cordero: Farmageddon (2019) 1080p pelicula full hd, Shaun El Cordero: Farmageddon (2019) 1080p mega latino, Shaun El Cordero: Farmageddon (2019) 1080p 4k latino, Shaun El Cordero: Farmageddon (2019) 1080p pelicula completa, Shaun El Cordero: Farmageddon (2019) 1080p descargar gratis, descargar Shaun El Cordero: Farmageddon (2019) 1080p pelicula latino, Shaun El Cordero: Farmageddon (2019) 1080p 1 link mega, Shaun El Cordero: Farmageddon (2019) 1080p 1 link google drive, Shaun El Cordero: Farmageddon (2019) 1080p hd 1080p latino.
Comentarios 2