×

¿Problemas para descargar con Mozilla, EDGE? Deshabilita la opción "Abrir vinculos en una pestaña nueva" tal como lo muestra ésta imagen.

Shaun El Cordero: Farmageddon (2019) Full HD 1080p

1.700 vistas

Información de Shaun El Cordero: Farmageddon (2019) Full HD 1080p

Datos de la película

  • Calidad: Full 1080p
  • Audio: Se especifica abajo de la Sinopsis
  • Subtitulos: No
  • Resolución: 1920x1080p
  • Formato: MKV
  • Codec: H.264
  • Encoder: CinefiloCool
  • Mediainfo: Clic para Mostrar Datos Ver
  • Shaun El Cordero - Farmageddon (2019) Full HD 1080p Eng-CMHDD.mkv
    Format                      : Matroska
    Format version              : Version 4
    File size                   : 4.14 GiB
    Duration                    : 1 h 26 min
    Overall bit rate mode       : Variable
    Overall bit rate            : 6 824 kb/s
    Movie name                  : CinemaniaHDD.Net
    Encoded date                : UTC 2020-02-02 06:13:50
    Writing application         : mkvmerge v42.0.0 ('Overtime') 64-bit
    Writing library             : libebml v1.3.10 + libmatroska v1.5.2
    Attachments                 : CINEMANIAHD.png

    Video
    ID                          : 1
    Format                      : AVC
    Format/Info                 : Advanced Video Codec
    Format profile              : High@L4.1
    Format settings             : CABAC / 4 Ref Frames
    Format settings, CABAC      : Yes
    Format settings, ReFrames   : 4 frames
    Codec ID                    : V_MPEG4/ISO/AVC
    Duration                    : 1 h 26 min
    Bit rate                    : 1 987 kb/s
    Width                       : 1 920 pixels
    Height                      : 1 080 pixels
    Display aspect ratio        : 16:9
    Frame rate mode             : Constant
    Frame rate                  : 24.000 FPS
    Color space                 : YUV
    Chroma subsampling          : 4:2:0
    Bit depth                   : 8 bits
    Scan type                   : Progressive
    Bits/(Pixel*Frame)          : 0.040
    Stream size                 : 1.20 GiB (29%)
    Title                       : Full HD1080p [Bluray]
    Writing library             : x264 core 157 r2935 545de2f
    Encoding settings           : cabac=1 / ref=4 / deblock=1:1:1 / analyse=0x3:0x133 / me=tesa / subme=11 / psy=1 / psy_rd=0.40:0.00 / mixed_ref=1 / me_range=24 / chroma_me=1 / trellis=2 / 8x8dct=1 / cqm=0 / deadzone=21,11 / fast_pskip=0 / chroma_qp_offset=-2 / threads=34 / lookahead_threads=8 / sliced_threads=0 / nr=0 / decimate=1 / interlaced=0 / bluray_compat=0 / constrained_intra=0 / bframes=16 / b_pyramid=2 / b_adapt=2 / b_bias=0 / direct=3 / weightb=1 / open_gop=0 / weightp=2 / keyint=240 / keyint_min=24 / scenecut=40 / intra_refresh=0 / rc_lookahead=60 / rc=crf / mbtree=1 / crf=20.0 / qcomp=0.60 / qpmin=0 / qpmax=69 / qpstep=4 / vbv_maxrate=62500 / vbv_bufsize=78125 / crf_max=0.0 / nal_hrd=none / filler=0 / ip_ratio=1.40 / aq=1:0.60
    Default                     : Yes
    Forced                      : Yes
    Color range                 : Limited
    Color primaries             : BT.709
    Transfer characteristics    : BT.709
    Matrix coefficients         : BT.709

    Audio #1
    ID                          : 2
    Format                      : MLP FBA 16-ch
    Format/Info                 : Meridian Lossless Packing FBA with 16-channel presentation
    Commercial name             : Dolby TrueHD with Dolby Atmos
    Codec ID                    : A_TRUEHD
    Duration                    : 1 h 26 min
    Bit rate mode               : Variable
    Bit rate                    : 4 128 kb/s
    Maximum bit rate            : 6 426 kb/s
    Channel(s)                  : 8 channels
    Channel layout              : L R C LFE Ls Rs Lb Rb
    Sampling rate               : 48.0 kHz
    Frame rate                  : 1 200.000 FPS (40 SPF)
    Compression mode            : Lossless
    Stream size                 : 2.50 GiB (60%)
    Title                       : THD_7.1_Bluray_Eng
    Language                    : English
    Default                     : Yes
    Forced                      : Yes
    Number of dynamic objects   : 11
    Bed channel count           : 1 channel
    Bed channel configuration   : LFE

    Audio #2
    ID                          : 3
    Format                      : AC-3
    Format/Info                 : Audio Coding 3
    Commercial name             : Dolby Digital
    Codec ID                    : A_AC3
    Duration                    : 1 h 26 min
    Bit rate mode               : Constant
    Bit rate                    : 640 kb/s
    Channel(s)                  : 6 channels
    Channel layout              : L R C LFE Ls Rs
    Sampling rate               : 48.0 kHz
    Frame rate                  : 31.250 FPS (1536 SPF)
    Bit depth                   : 16 bits
    Compression mode            : Lossy
    Stream size                 : 397 MiB (9%)
    Title                       : AC3_5.1_Bluray_Eng
    Language                    : English
    Service kind                : Complete Main
    Default                     : No
    Forced                      : No

    Menu
    00:00:00.000                : :Chapter 1
    00:06:22.208                : :Chapter 2
    00:10:49.375                : :Chapter 3
    00:17:31.500                : :Chapter 4
    00:22:46.125                : :Chapter 5
    00:32:52.042                : :Chapter 6
    00:38:18.958                : :Chapter 7
    00:44:27.667                : :Chapter 8
    00:54:43.917                : :Chapter 9
    01:00:59.208                : :Chapter 10
    01:05:47.750                : :Chapter 11
    01:12:25.042                : :Chapter 12

  • Peso: 4.14 GiB

Sinopsis

Descargar Shaun El Cordero: Farmageddon (2019) Full HD 1080p. Unas extrañas luces planean sobre el cielo del tranquilo Mossingham anunciando la llegada de visitantes de una lejana galaxia, pero en la granja Mossy Bottom la oveja Shaun y el resto del rebaño siguen haciendo de las suyas…muy a pesar de Bitzer, su perro pastor. Tras esta incursión, una adorable extraterrestre de asombrosos poderes se queda en tierra, y… ¡Shaun ve en ella una oportunidad de diversión alienígena! Pero antes ha de evitar que su nueva amiga sea capturada por una siniestra organización. ¿Estará preparado el rebaño para afrontar una misión de dimensiones… astronómicas?

Audio Ingles TrueHD 7.1 + AC3 5.1 Bluray

Ficha técnica

Video trailer de la película

Enlaces de descarga

Rip de Bluray

Descargar Shaun El Cordero: Farmageddon (2019) Full HD 1080p




Aportes de DPeliculasHDmega la pass es:dpeliculashdmega.org Aportes de CinemaniaHD la pass es:cinemaniahdd.com

Películas relacionadas

  • Paradise Highway (2022) PLACEBO Full HD 1080p Latino

    Paradise Highway (2022) PLACEBO Full HD 1080p Latino

    2022
    Paradise Highway (2022) PLACEBO Full HD 1080p Latino

    1h 55m 2022

    Descargar Paradise Highway (2022) PLACEBO Full HD 1080p Latino. Un camionero se ha visto obligado a pasar...

    Director: Anna Gutto

    Género: Crimen

    Actores: Xavier Scott Evans

  • Shotgun Wedding (2022) AMZN WEB-DL 1080p Latino

    Shotgun Wedding (2022) AMZN WEB-DL 1080p Latino

    2022
    Shotgun Wedding (2022) AMZN WEB-DL 1080p Latino

    1h 41m 2022

    Darcy y Tom reúnen a sus familias para la boda de destino definitiva, pero cuando toman como rehenes...

    Director: Jason Moore

    Género: Acción

    Actores: Steve Coulter

  • M3GAN (2023) AMZN WEB-DL 4K UHD HDR Latino

    M3GAN (2023) AMZN WEB-DL 4K UHD HDR Latino

    2022
    M3GAN (2023) AMZN WEB-DL 4K UHD HDR Latino

    1h 42m 2022

    Descargar M3GAN (2023) AMZN WEB-DL 4K UHD HDR Latino. Cuando Gemma se convierte en la cuidadora de su...

    Director: Stephen W. Moore

    Género: 4K HDR

    Actores: Violet McGraw

  • M3GAN (2022) MA WEB-DL 1080p Latino

    M3GAN (2022) MA WEB-DL 1080p Latino

    2022
    M3GAN (2022) MA WEB-DL 1080p Latino

    1h 42m 2022

    Descargar M3GAN (2022) MA WEB-DL 1080p Latino. Cuando Gemma se convierte en la cuidadora de su sobrina...

    Director: Stephen W. Moore

    Género: Ciencia ficción

    Actores: Violet McGraw

descargar Shaun El Cordero: Farmageddon (2019) Full HD 1080p Full 1080p 1080p gratis, Shaun El Cordero: Farmageddon (2019) Full HD 1080p Full 1080p mega 1 link, Shaun El Cordero: Farmageddon (2019) Full HD 1080p Full 1080p pelicula completa, descargar Shaun El Cordero: Farmageddon (2019) Full HD 1080p Full 1080p gratis en mega.

Shaun El Cordero: Farmageddon (2019) Full HD 1080p pelicula full hd, Shaun El Cordero: Farmageddon (2019) Full HD 1080p mega latino, Shaun El Cordero: Farmageddon (2019) Full HD 1080p 4k latino, Shaun El Cordero: Farmageddon (2019) Full HD 1080p pelicula completa, Shaun El Cordero: Farmageddon (2019) Full HD 1080p descargar gratis, descargar Shaun El Cordero: Farmageddon (2019) Full HD 1080p pelicula latino, Shaun El Cordero: Farmageddon (2019) Full HD 1080p 1 link mega, Shaun El Cordero: Farmageddon (2019) Full HD 1080p 1 link google drive, Shaun El Cordero: Farmageddon (2019) Full HD 1080p hd 1080p latino.
Comentarios 0