×

¿Problemas para descargar con Mozilla, EDGE? Deshabilita la opción "Abrir vinculos en una pestaña nueva" tal como lo muestra ésta imagen.

A Series of Unfortunate Events (2017-2019) [NF] WEB-DL 1080p Latino – CMHDD

96 vistas

Información de A Series of Unfortunate Events (2017-2019) [NF] WEB-DL 1080p Latino – CMHDD

Datos de la película

  • Calidad: WEBDL
  • Audio: Español Latino E-AC3 5.1 Netflix - Ingles E-AC3 5.1 Netflix
  • Subtitulos: Español Latino SRT- FORZADOS SRT
  • Resolución: 19201080p
  • Formato: MKV
  • Codec: H.264
  • Encoder: Dracarys
  • Mediainfo: Clic para Mostrar Datos Ver
  • Format                      : Matroska
    Format version              : Version 4
    File size                   : 2.31 GiB
    Duration                    : 49 min 53 s
    Overall bit rate mode       : Variable
    Overall bit rate            : 6 626 kb/s
    Movie name                  : A Series of Unfortunate Events (2017) [NF] WEB-DL [S01E01] 1080p Latino - CMHDD
    Encoded date                : UTC 2023-12-26 02:44:58
    Writing application         : mkvmerge v47.0.0 ('Black Flag') 64-bit
    Writing library             : libebml v1.3.10 + libmatroska v1.5.2

    Video
    ID                          : 1
    Format                      : AVC
    Format/Info                 : Advanced Video Codec
    Format profile              : High@L4
    Format settings             : CABAC / 4 Ref Frames
    Format settings, CABAC      : Yes
    Format settings, Reference  : 4 frames
    Codec ID                    : V_MPEG4/ISO/AVC
    Duration                    : 49 min 53 s
    Bit rate mode               : Variable
    Bit rate                    : 5 344 kb/s
    Maximum bit rate            : 20.0 Mb/s
    Width                       : 1 920 pixels
    Height                      : 1 080 pixels
    Display aspect ratio        : 16:9
    Frame rate mode             : Constant
    Frame rate                  : 24.000 FPS
    Color space                 : YUV
    Chroma subsampling          : 4:2:0
    Bit depth                   : 8 bits
    Scan type                   : Progressive
    Bits/(Pixel*Frame)          : 0.107
    Stream size                 : 1.86 GiB (81%)
    Writing library             : x264 core 148 r2727 7d026e8
    Encoding settings           : cabac=1 / ref=4 / deblock=1:0:0 / analyse=0x3:0x111 / me=umh / subme=10 / psy=1 / psy_rd=1.00:0.00 / mixed_ref=1 / me_range=120 / chroma_me=1 / trellis=2 / 8x8dct=1 / cqm=0 / deadzone=21,11 / fast_pskip=1 / chroma_qp_offset=-2 / threads=6 / lookahead_threads=1 / sliced_threads=0 / nr=0 / decimate=1 / interlaced=0 / bluray_compat=0 / stitchable=1 / constrained_intra=0 / bframes=16 / b_pyramid=2 / b_adapt=2 / b_bias=0 / direct=3 / weightb=1 / open_gop=0 / weightp=2 / keyint=240 / keyint_min=121 / scenecut=0 / intra_refresh=0 / rc_lookahead=240 / rc=crf / mbtree=1 / crf=16.0 / qcomp=0.50 / qpmin=6 / qpmax=51 / qpstep=4 / vbv_maxrate=20000 / vbv_bufsize=25000 / crf_max=0.0 / nal_hrd=vbr / filler=0 / ip_ratio=1.40 / aq=1:0.80
    Default                     : Yes
    Forced                      : No

    Audio #1
    ID                          : 2
    Format                      : E-AC-3
    Format/Info                 : Enhanced AC-3
    Commercial name             : Dolby Digital Plus
    Codec ID                    : A_EAC3
    Duration                    : 49 min 53 s
    Bit rate mode               : Constant
    Bit rate                    : 640 kb/s
    Channel(s)                  : 6 channels
    Channel layout              : L R C LFE Ls Rs
    Sampling rate               : 48.0 kHz
    Frame rate                  : 31.250 FPS (1536 SPF)
    Compression mode            : Lossy
    Stream size                 : 228 MiB (10%)
    Language                    : Spanish
    Service kind                : Complete Main
    Default                     : Yes
    Forced                      : No

    Audio #2
    ID                          : 3
    Format                      : E-AC-3
    Format/Info                 : Enhanced AC-3
    Commercial name             : Dolby Digital Plus
    Codec ID                    : A_EAC3
    Duration                    : 49 min 53 s
    Bit rate mode               : Constant
    Bit rate                    : 640 kb/s
    Channel(s)                  : 6 channels
    Channel layout              : L R C LFE Ls Rs
    Sampling rate               : 48.0 kHz
    Frame rate                  : 31.250 FPS (1536 SPF)
    Compression mode            : Lossy
    Stream size                 : 228 MiB (10%)
    Language                    : English
    Service kind                : Complete Main
    Default                     : No
    Forced                      : No

    Text #1
    ID                          : 4
    Format                      : UTF-8
    Codec ID                    : S_TEXT/UTF8
    Codec ID/Info               : UTF-8 Plain Text
    Duration                    : 48 min 28 s
    Bit rate                    : 2 b/s
    Frame rate                  : 0.009 FPS
    Count of elements           : 25
    Stream size                 : 793 Bytes (0%)
    Title                       : F
    Language                    : Spanish
    Default                     : Yes
    Forced                      : Yes

    Text #2
    ID                          : 5
    Format                      : UTF-8
    Codec ID                    : S_TEXT/UTF8
    Codec ID/Info               : UTF-8 Plain Text
    Duration                    : 48 min 28 s
    Bit rate                    : 87 b/s
    Frame rate                  : 0.252 FPS
    Count of elements           : 734
    Stream size                 : 31.2 KiB (0%)
    Language                    : Spanish
    Default                     : No
    Forced                      : No

    Menu
    00:00:00.000                : en:Part 01
    00:47:34.450                : en:Credits

     

  • Peso: 55 GiB

Sinopsis

Basada en los bestsellers mundiales del escritor Lemony Snicket (pseudónimo de Daniel Handler) y protagonizada por Neil Patrick Harris, ganador de los premios Emmy y Tony, Una serie de catastróficas desdichas relata la trágica historia de los huérfanos Baudelaire —Violet, Klaus y Sunny—, cuyo malvado tutor, el conde Olaf, no se detendrá ante nada para adueñarse de su herencia. Los hermanos tienen que adelantarse siempre a Olaf, desbaratando todos sus planes y argucias, para descubrir pistas sobre la misteriosa muerte de sus padres.

Ficha técnica

Video trailer de la película

Enlaces de descarga

Rip de Bluray

Descargar A Series of Unfortunate Events (2017-2019) [NF] WEB-DL 1080p Latino – CMHDD




Aportes de DPeliculasHDmega la pass es:dpeliculashdmega.org Aportes de CinemaniaHD la pass es:cinemaniahdd.com Aportes recientes:cinemaniahdd.net

Películas relacionadas

  • iZombie (2016) Temporada 02 Full HD 1080p Latino

    iZombie (2016) Temporada 02 Full HD 1080p Latino

    2015
    iZombie (2016) Temporada 02 Full HD 1080p Latino

    0h 42m 2015

    Descargar iZombie (2016) Temporada 02 Full HD 1080p Latino. Gira en torno a una estudiante de medicina...

    Director: Rob Thomas

    Género: Crimen

    Actores: Rose McIver

  • iZombie (2016) Temporada 02 REMUX 1080p Latino

    iZombie (2016) Temporada 02 REMUX 1080p Latino

    2015
    iZombie (2016) Temporada 02 REMUX 1080p Latino

    0h 42m 2015

    Descargar iZombie (2016) Temporada 02 REMUX 1080p Latino. Gira en torno a una estudiante de medicina...

    Director: Rob Thomas

    Género: Crimen

    Actores: Rose McIver

  • iZombie (2015) Temporada 01 Full HD 1080p Latino

    iZombie (2015) Temporada 01 Full HD 1080p Latino

    2015
    iZombie (2015) Temporada 01 Full HD 1080p Latino

    0h 42m 2015

    Descargar iZombie (2015) Temporada 01 Full HD 1080p Latino. Gira en torno a una estudiante de medicina...

    Director: Rob Thomas

    Género: Crimen

    Actores: Rose McIver

  • iZombie (2015) Temporada 01 REMUX 1080p Latino

    iZombie (2015) Temporada 01 REMUX 1080p Latino

    2015
    iZombie (2015) Temporada 01 REMUX 1080p Latino

    0h 42m 2015

    Descargar iZombie (2015) Temporada 01 REMUX 1080p Latino. Gira en torno a una estudiante de medicina...

    Director: Rob Thomas

    Género: Crimen

    Actores: Rose McIver

descargar A Series of Unfortunate Events (2017-2019) [NF] WEB-DL 1080p Latino – CMHDD WEBDL 1080p gratis, A Series of Unfortunate Events (2017-2019) [NF] WEB-DL 1080p Latino – CMHDD WEBDL mega 1 link, A Series of Unfortunate Events (2017-2019) [NF] WEB-DL 1080p Latino – CMHDD WEBDL pelicula completa, descargar A Series of Unfortunate Events (2017-2019) [NF] WEB-DL 1080p Latino – CMHDD WEBDL gratis en mega.

A Series of Unfortunate Events (2017-2019) [NF] WEB-DL 1080p Latino – CMHDD pelicula full hd, A Series of Unfortunate Events (2017-2019) [NF] WEB-DL 1080p Latino – CMHDD mega latino, A Series of Unfortunate Events (2017-2019) [NF] WEB-DL 1080p Latino – CMHDD 4k latino, A Series of Unfortunate Events (2017-2019) [NF] WEB-DL 1080p Latino – CMHDD pelicula completa, A Series of Unfortunate Events (2017-2019) [NF] WEB-DL 1080p Latino – CMHDD descargar gratis, descargar A Series of Unfortunate Events (2017-2019) [NF] WEB-DL 1080p Latino – CMHDD pelicula latino, A Series of Unfortunate Events (2017-2019) [NF] WEB-DL 1080p Latino – CMHDD 1 link mega, A Series of Unfortunate Events (2017-2019) [NF] WEB-DL 1080p Latino – CMHDD 1 link google drive, A Series of Unfortunate Events (2017-2019) [NF] WEB-DL 1080p Latino – CMHDD hd 1080p latino.
Comentarios 0