×

¿Problemas para descargar con Mozilla, EDGE? Deshabilita la opción "Abrir vinculos en una pestaña nueva" tal como lo muestra ésta imagen.

A Second Chance: Rivals! (2019) WEB-DL 1080p Latino

338 vistas

Información de A Second Chance: Rivals! (2019) WEB-DL 1080p Latino

Datos de la película

  • Calidad: WEBDL
  • Audio: Español Latino AC3 5.1 iTunes
  • Subtitulos: No
  • Resolución: 1908x1068
  • Formato: MKV
  • Codec: H.264
  • Encoder: CinemaniaHD
  • Mediainfo: Clic para Mostrar Datos Ver
  • A Second Chance  Rivals (2019) WEB-DL 1080p Latino.mkv
    Format                      : Matroska
    Format version              : Version 4
    File size                   : 3.44 GiB
    Duration                    : 1 h 29 min
    Overall bit rate            : 5 527 kb/s
    Encoded date                : UTC 2020-05-15 15:06:21
    Writing application         : mkvmerge v46.0.0 ('No Deeper Escape') 64-bit
    Writing library             : libebml v1.3.10 + libmatroska v1.5.2
    Cover                       : Yes
    Attachments                 : cover.jpg

    Video
    ID                          : 1
    Format                      : AVC
    Format/Info                 : Advanced Video Codec
    Format profile              : High@L4
    Format settings             : CABAC / 4 Ref Frames
    Format settings, CABAC      : Yes
    Format settings, Reference  : 4 frames
    Codec ID                    : V_MPEG4/ISO/AVC
    Duration                    : 1 h 29 min
    Bit rate                    : 5 141 kb/s
    Width                       : 1 908 pixels
    Height                      : 1 068 pixels
    Display aspect ratio        : 16:9
    Frame rate mode             : Constant
    Frame rate                  : 25.000 FPS
    Color space                 : YUV
    Chroma subsampling          : 4:2:0
    Bit depth                   : 8 bits
    Scan type                   : Progressive
    Bits/(Pixel*Frame)          : 0.101
    Stream size                 : 3.20 GiB (93%)
    Language                    : English
    Default                     : Yes
    Forced                      : No
    Color range                 : Limited
    Color primaries             : BT.709
    Transfer characteristics    : BT.709
    Matrix coefficients         : BT.709

    Audio
    ID                          : 2
    Format                      : AC-3
    Format/Info                 : Audio Coding 3
    Commercial name             : Dolby Digital
    Codec ID                    : A_AC3
    Duration                    : 1 h 29 min
    Bit rate mode               : Constant
    Bit rate                    : 384 kb/s
    Channel(s)                  : 6 channels
    Channel layout              : L R C LFE Ls Rs
    Sampling rate               : 48.0 kHz
    Frame rate                  : 31.250 FPS (1536 SPF)
    Compression mode            : Lossy
    Delay relative to video     : -40 ms
    Stream size                 : 245 MiB (7%)
    Language                    : Spanish
    Service kind                : Complete Main
    Default                     : Yes
    Forced                      : No

    Menu
    00:00:00.000                : en:1
    00:08:32.320                : en:2
    00:15:58.800                : en:3
    00:24:55.440                : en:4
    00:32:25.720                : en:5
    00:40:59.440                : en:6
    00:48:20.800                : en:7
    00:57:26.999                : en:8
    01:04:41.999                : en:9
    01:13:08.599                : en:10
    01:22:31.878                : en:11
    01:25:52.997                : en:12

  • Peso: 3.44 GiB

Sinopsis

Mientras Maddy comienza a entrenar a un equipo de jóvenes gimnastas de doce años, se enfrenta a una intensa rivalidad entre la ciudad y el país, el racismo, el acoso cibernético y sus propias dudas, pero finalmente acepta el desafío.

Ficha técnica

  • Titulo original: A Second Chance: Rivals!
  • Fecha de lanzamiento: 21-09-2019 (Australia)
  • Director: Clay Glen
  • Género: Drama, Familia

Video trailer de la película

Enlaces de descarga

Rip de Bluray

Descargar A Second Chance: Rivals! (2019) WEB-DL 1080p Latino




Aportes de DPeliculasHDmega la pass es:dpeliculashdmega.org Aportes de CinemaniaHD la pass es:cinemaniahdd.com
Guardado en : Drama , Familia

Películas relacionadas

descargar A Second Chance: Rivals! (2019) WEB-DL 1080p Latino WEBDL 1080p gratis, A Second Chance: Rivals! (2019) WEB-DL 1080p Latino WEBDL mega 1 link, A Second Chance: Rivals! (2019) WEB-DL 1080p Latino WEBDL pelicula completa, descargar A Second Chance: Rivals! (2019) WEB-DL 1080p Latino WEBDL gratis en mega.

A Second Chance: Rivals! (2019) WEB-DL 1080p Latino pelicula full hd, A Second Chance: Rivals! (2019) WEB-DL 1080p Latino mega latino, A Second Chance: Rivals! (2019) WEB-DL 1080p Latino 4k latino, A Second Chance: Rivals! (2019) WEB-DL 1080p Latino pelicula completa, A Second Chance: Rivals! (2019) WEB-DL 1080p Latino descargar gratis, descargar A Second Chance: Rivals! (2019) WEB-DL 1080p Latino pelicula latino, A Second Chance: Rivals! (2019) WEB-DL 1080p Latino 1 link mega, A Second Chance: Rivals! (2019) WEB-DL 1080p Latino 1 link google drive, A Second Chance: Rivals! (2019) WEB-DL 1080p Latino hd 1080p latino.
Comentarios 0