×

¿Problemas para descargar con Mozilla, EDGE? Deshabilita la opción "Abrir vinculos en una pestaña nueva" tal como lo muestra ésta imagen.

A River Runs Through It (1992) REMUX 1080p Latino – CMHDD

536 vistas

Información de A River Runs Through It (1992) REMUX 1080p Latino – CMHDD

Datos de la película

  • Calidad: Full 1080p
  • Audio: Español Latino AC3 5.1 BLURAY - Ingles AC3 5.1 BLURAY
  • Subtitulos: Español Latino PGS
  • Resolución: 1920x1080p
  • Formato: MKV
  • Codec: H.264
  • Encoder: Dracarys
  • Mediainfo: Clic para Mostrar Datos Ver
  • Format                      : Matroska
    Format version              : Version 4
    File size                   : 23.6 GiB
    Duration                    : 2 h 3 min
    Overall bit rate mode       : Variable
    Overall bit rate            : 27.3 Mb/s
    Movie name                  : A River Runs Through It (1992) REMUX 1080p Latino - CMHDD
    Encoded date                : UTC 2021-03-14 04:38:14
    Writing application         : mkvmerge v51.0.0 ('I Wish') 64-bit
    Writing library             : libebml v1.4.0 + libmatroska v1.6.2
    Cover                       : Yes
    Attachments                 : cover.jpg

    Video
    ID                          : 1
    ID in the original source m : 4113 (0x1011)
    Format                      : AVC
    Format/Info                 : Advanced Video Codec
    Format profile              : High@L4.1
    Format settings             : CABAC / 2 Ref Frames
    Format settings, CABAC      : Yes
    Format settings, Reference  : 2 frames
    Codec ID                    : V_MPEG4/ISO/AVC
    Duration                    : 2 h 3 min
    Bit rate mode               : Variable
    Bit rate                    : 25.0 Mb/s
    Width                       : 1 920 pixels
    Height                      : 1 080 pixels
    Display aspect ratio        : 16:9
    Frame rate mode             : Constant
    Frame rate                  : 23.976 (24000/1001) FPS
    Color space                 : YUV
    Chroma subsampling          : 4:2:0
    Bit depth                   : 8 bits
    Scan type                   : Progressive
    Bits/(Pixel*Frame)          : 0.502
    Stream size                 : 21.5 GiB (91%)
    Default                     : Yes
    Forced                      : No
    Original source medium      : Blu-ray

    Audio #1
    ID                          : 2
    ID in the original source m : 4354 (0x1102)
    Format                      : AC-3
    Format/Info                 : Audio Coding 3
    Commercial name             : Dolby Digital
    Codec ID                    : A_AC3
    Duration                    : 2 h 3 min
    Bit rate mode               : Constant
    Bit rate                    : 448 kb/s
    Channel(s)                  : 6 channels
    Channel layout              : L R C LFE Ls Rs
    Sampling rate               : 48.0 kHz
    Frame rate                  : 31.250 FPS (1536 SPF)
    Compression mode            : Lossy
    Stream size                 : 396 MiB (2%)
    Language                    : Spanish
    Service kind                : Complete Main
    Default                     : Yes
    Forced                      : No
    Original source medium      : Blu-ray

    Audio #2
    ID                          : 3
    ID in the original source m : 4352 (0x1100)
    Format                      : MLP FBA
    Format/Info                 : Meridian Lossless Packing FBA
    Commercial name             : Dolby TrueHD
    Codec ID                    : A_TRUEHD
    Duration                    : 2 h 3 min
    Bit rate mode               : Variable
    Bit rate                    : 1 376 kb/s
    Maximum bit rate            : 2 475 kb/s
    Channel(s)                  : 6 channels
    Channel layout              : L R C LFE Ls Rs
    Sampling rate               : 48.0 kHz
    Frame rate                  : 1 200.000 FPS (40 SPF)
    Compression mode            : Lossless
    Stream size                 : 1.19 GiB (5%)
    Language                    : English
    Default                     : No
    Forced                      : No
    Original source medium      : Blu-ray

    Audio #3
    ID                          : 4
    ID in the original source m : 4352 (0x1100)
    Format                      : AC-3
    Format/Info                 : Audio Coding 3
    Commercial name             : Dolby Digital
    Codec ID                    : A_AC3
    Duration                    : 2 h 3 min
    Bit rate mode               : Constant
    Bit rate                    : 448 kb/s
    Channel(s)                  : 6 channels
    Channel layout              : L R C LFE Ls Rs
    Sampling rate               : 48.0 kHz
    Frame rate                  : 31.250 FPS (1536 SPF)
    Compression mode            : Lossy
    Stream size                 : 396 MiB (2%)
    Language                    : English
    Service kind                : Complete Main
    Default                     : No
    Forced                      : No
    Original source medium      : Blu-ray

    Text
    ID                          : 5
    ID in the original source m : 4612 (0x1204)
    Format                      : PGS
    Muxing mode                 : zlib
    Codec ID                    : S_HDMV/PGS
    Codec ID/Info               : Picture based subtitle format used on BDs/HD-DVDs
    Duration                    : 1 h 58 min
    Bit rate                    : 21.2 kb/s
    Count of elements           : 1908
    Stream size                 : 18.0 MiB (0%)
    Language                    : Spanish
    Default                     : No
    Forced                      : No
    Original source medium      : Blu-ray

    Menu
    00:00:00.000                : en:Chapter 01
    00:05:59.609                : en:Chapter 02
    00:10:40.264                : en:Chapter 03
    00:16:45.129                : en:Chapter 04
    00:25:42.457                : en:Chapter 05
    00:33:54.907                : en:Chapter 06
    00:41:57.932                : en:Chapter 07
    00:48:46.423                : en:Chapter 08
    00:55:25.113                : en:Chapter 09
    01:03:21.005                : en:Chapter 10
    01:09:06.267                : en:Chapter 11
    01:17:20.969                : en:Chapter 12
    01:27:43.466                : en:Chapter 13
    01:35:55.916                : en:Chapter 14
    01:48:00.390                : en:Chapter 15
    01:52:32.787                : en:Chapter 16

  • Peso: 23.6 GiB

Sinopsis

Aunque Norman (Craig Sheffer) y Paul Mclean (Brad Pitt), hijos de un pastor protestante, recibieron una rígida educación, tambien disfrutaron de libertad. Norman, un joven juicioso y reservado, es profesor y está enamorado. Paul, en cambio, es extrovertido, se dedica al periodismo y lleva una vida desordenada. A pesar de todo, hay algo que siempre los mantendrá unidos: el río salvaje que atraviesa Montana, donde aprendieron a pescar.

Ficha técnica

  • Titulo original: A River Runs Through It
  • Fecha de lanzamiento: 09-10-1992 (United States of America)
  • Director: Robert Redford
  • Género: Drama

Video trailer de la película

Enlaces de descarga

Rip de Bluray

Descargar A River Runs Through It (1992) REMUX 1080p Latino – CMHDD


Aportes de DPeliculasHDmega la pass es:dpeliculashdmega.org Aportes de CinemaniaHD la pass es:cinemaniahdd.com Aportes recientes:cinemaniahdd.net
Guardado en : Drama

Películas relacionadas

descargar A River Runs Through It (1992) REMUX 1080p Latino – CMHDD Full 1080p 1080p gratis, A River Runs Through It (1992) REMUX 1080p Latino – CMHDD Full 1080p mega 1 link, A River Runs Through It (1992) REMUX 1080p Latino – CMHDD Full 1080p pelicula completa, descargar A River Runs Through It (1992) REMUX 1080p Latino – CMHDD Full 1080p gratis en mega.

A River Runs Through It (1992) REMUX 1080p Latino – CMHDD pelicula full hd, A River Runs Through It (1992) REMUX 1080p Latino – CMHDD mega latino, A River Runs Through It (1992) REMUX 1080p Latino – CMHDD 4k latino, A River Runs Through It (1992) REMUX 1080p Latino – CMHDD pelicula completa, A River Runs Through It (1992) REMUX 1080p Latino – CMHDD descargar gratis, descargar A River Runs Through It (1992) REMUX 1080p Latino – CMHDD pelicula latino, A River Runs Through It (1992) REMUX 1080p Latino – CMHDD 1 link mega, A River Runs Through It (1992) REMUX 1080p Latino – CMHDD 1 link google drive, A River Runs Through It (1992) REMUX 1080p Latino – CMHDD hd 1080p latino.
Comentarios 0