Un Lugar En Silencio Parte II (2021) AMZN WebDL 1080p SUB

102 vistas
1 estrella2 estrellas3 estrellas4 estrellas5 estrellas (2 votos, promedio: 5,00 de 5)
Cargando...

Información de Un Lugar En Silencio Parte II (2021) AMZN WebDL 1080p SUB

Datos de la película

  • Calidad: WEBDL
  • Audio: Ingles AC3 5.1 AMAZON
  • Subtitulos: Español Latino SRT - Ingles SRT
  • Resolución: 1916x798p
  • Formato: MKV
  • Codec: H.264
  • Encoder: CinefiloCool
  • Mediainfo: Clic para Mostrar Datos Ver
  • Un Lugar En Silencio Parte II (2021) AMZN WebDL 1080p SUB.mkv
    Format                      : Matroska
    Format version              : Version 4
    File size                   : 7.84 GiB
    Duration                    : 1 h 37 min
    Overall bit rate            : 11.6 Mb/s
    Movie name                  : A Quiet Place Part II (2021) CinemaniaHDD.Net
    Encoded date                : UTC 2021-06-28 05:24:29
    Writing application         : mkvmerge v56.1.0 ('My Friend') 64-bit
    Writing library             : libebml v1.4.2 + libmatroska v1.6.4
    Attachments                 : CINEMANIAHD.png

    Video
    ID                          : 1
    Format                      : AVC
    Format/Info                 : Advanced Video Codec
    Format profile              : High@L4
    Format settings             : CABAC / 5 Ref Frames
    Format settings, CABAC      : Yes
    Format settings, Reference  : 5 frames
    Codec ID                    : V_MPEG4/ISO/AVC
    Duration                    : 1 h 37 min
    Bit rate                    : 10.2 Mb/s
    Width                       : 1 916 pixels
    Height                      : 798 pixels
    Display aspect ratio        : 2.40:1
    Frame rate mode             : Constant
    Frame rate                  : 23.976 (24000/1001) FPS
    Color space                 : YUV
    Chroma subsampling          : 4:2:0
    Bit depth                   : 8 bits
    Scan type                   : Progressive
    Bits/(Pixel*Frame)          : 0.277
    Stream size                 : 6.88 GiB (88%)
    Title                       : WEB HD1080p [CinemaniaHDD]
    Default                     : Yes
    Forced                      : Yes
    Color range                 : Limited
    Color primaries             : BT.709
    Transfer characteristics    : BT.709
    Matrix coefficients         : BT.709

    Audio #1
    ID                          : 2
    Format                      : E-AC-3 JOC
    Format/Info                 : Enhanced AC-3 with Joint Object Coding
    Commercial name             : Dolby Digital Plus with Dolby Atmos
    Codec ID                    : A_EAC3
    Duration                    : 1 h 37 min
    Bit rate mode               : Constant
    Bit rate                    : 768 kb/s
    Channel(s)                  : 6 channels
    Channel layout              : L R C LFE Ls Rs
    Sampling rate               : 48.0 kHz
    Frame rate                  : 31.250 FPS (1536 SPF)
    Compression mode            : Lossy
    Stream size                 : 533 MiB (7%)
    Title                       : Ingles [CinemaniaHDD]
    Language                    : English
    Service kind                : Complete Main
    Default                     : Yes
    Forced                      : No
    Complexity index            : 16
    Number of dynamic objects   : 15
    Bed channel count           : 1 channel
    Bed channel configuration   : LFE

    Audio #2
    ID                          : 3
    Format                      : AC-3
    Format/Info                 : Audio Coding 3
    Commercial name             : Dolby Digital
    Codec ID                    : A_AC3
    Duration                    : 1 h 37 min
    Bit rate mode               : Constant
    Bit rate                    : 640 kb/s
    Channel(s)                  : 6 channels
    Channel layout              : L R C LFE Ls Rs
    Sampling rate               : 48.0 kHz
    Frame rate                  : 31.250 FPS (1536 SPF)
    Compression mode            : Lossy
    Stream size                 : 444 MiB (6%)
    Title                       : Ingles AC3 [CinemaniaHDD]
    Language                    : English
    Service kind                : Complete Main
    Default                     : No
    Forced                      : No

    Text #1
    ID                          : 4
    Format                      : UTF-8
    Codec ID                    : S_TEXT/UTF8
    Codec ID/Info               : UTF-8 Plain Text
    Duration                    : 1 h 35 min
    Bit rate                    : 10 b/s
    Count of elements           : 329
    Stream size                 : 7.61 KiB (0%)
    Title                       : Español-SRT [CinemaniaHDD]
    Language                    : Spanish
    Default                     : No
    Forced                      : No

    Text #2
    ID                          : 5
    Format                      : UTF-8
    Codec ID                    : S_TEXT/UTF8
    Codec ID/Info               : UTF-8 Plain Text
    Duration                    : 1 h 26 min
    Bit rate                    : 18 b/s
    Count of elements           : 563
    Stream size                 : 11.9 KiB (0%)
    Title                       : Ingles-SRT [CinemaniaHDD]
    Language                    : English
    Default                     : No
    Forced                      : No

    Menu
    00:00:00.000                : Scene 1
    00:06:39.107                : Scene 2
    00:12:16.319                : Scene 3
    00:17:00.270                : Scene 4
    00:26:28.171                : Scene 5
    00:33:26.339                : Scene 6
    00:38:06.703                : Scene 7
    00:45:53.753                : Scene 8
    00:51:18.036                : Scene 9
    00:55:35.919                : Scene 10
    01:02:21.282                : Scene 11
    01:08:43.832                : Scene 12
    01:16:31.925                : Scene 13
    01:21:25.885                : Scene 14
    01:28:11.833                : Scene 15

  • Peso: 7.84 GiB

Sinopsis

Descargar Un Lugar En Silencio Parte II (2021) AMZN WebDL 1080p SUB. Los Abbott están de vuelta. Después de los eventos ocurridos en Un lugar tranquilo (2018) se enfrentarán a los terrores del mundo exterior. Evelyn (Emily Blunt) junto con sus hijos Regan (Millicent Simmonds) y Marcus (Noah Jupe) además de su bebé, se adentrarán en los bosques, decididos a traspasar los límites y adentrarse en lo desconocido.

Ficha técnica

Video trailer de la película

Enlaces de descarga

Rip de Bluray

Descargar Un Lugar En Silencio Parte II (2021) AMZN WebDL 1080p SUB




Aportes de DPeliculasHDmega la pass es:dpeliculashdmega.org Aportes de CinemaniaHD la pass es:cinemaniahdd.com
Guardado en : Ciencia ficción , Suspenso , Terror

Películas relacionadas

Un Lugar En Silencio Parte II (2021) AMZN WebDL 1080p SUB pelicula full hd, Un Lugar En Silencio Parte II (2021) AMZN WebDL 1080p SUB mega latino, Un Lugar En Silencio Parte II (2021) AMZN WebDL 1080p SUB 4k latino, Un Lugar En Silencio Parte II (2021) AMZN WebDL 1080p SUB pelicula completa, Un Lugar En Silencio Parte II (2021) AMZN WebDL 1080p SUB descargar gratis, descargar Un Lugar En Silencio Parte II (2021) AMZN WebDL 1080p SUB pelicula latino, Un Lugar En Silencio Parte II (2021) AMZN WebDL 1080p SUB 1 link mega, Un Lugar En Silencio Parte II (2021) AMZN WebDL 1080p SUB 1 link google drive, Un Lugar En Silencio Parte II (2021) AMZN WebDL 1080p SUB hd 1080p latino.
Comentarios 0