×

¿Problemas para descargar con Mozilla, EDGE? Deshabilita la opción "Abrir vinculos en una pestaña nueva" tal como lo muestra ésta imagen.

A Quiet Place Part II (2021) REMUX 4K HDR Latino – CMHDD

183 vistas

Información de A Quiet Place Part II (2021) REMUX 4K HDR Latino – CMHDD

Datos de la película

  • Calidad: Full 1080p
  • Audio: Se especifica abajo de la Sinopsis
  • Subtitulos: Español Latino PGS
  • Resolución: 3840x2160p
  • Formato: MKV
  • Codec: HEVC
  • Encoder: Dracarys
  • Mediainfo: Clic para Mostrar Datos Ver
  • Format                      : Matroska
    Format version              : Version 4
    File size                   : 43.5 GiB
    Duration                    : 1 h 37 min
    Overall bit rate mode       : Variable
    Overall bit rate            : 64.1 Mb/s
    Movie name                  : A Quiet Place Part II (2021) REMUX 4K HDR Latino - CMHDD
    Encoded date                : UTC 2021-07-22 04:18:20
    Writing application         : mkvmerge v56.1.0 ('My Friend') 64-bit
    Writing library             : libebml v1.4.2 + libmatroska v1.6.4
    Cover                       : Yes
    Attachments                 : cover.jpg

    Video
    ID                          : 1
    ID in the original source m : 4113 (0x1011)
    Format                      : HEVC
    Format/Info                 : High Efficiency Video Coding
    Format profile              : Main 10@L5.1@High
    HDR format                  : SMPTE ST 2086, HDR10 compatible
    Codec ID                    : V_MPEGH/ISO/HEVC
    Duration                    : 1 h 37 min
    Bit rate                    : 58.5 Mb/s
    Width                       : 3 840 pixels
    Height                      : 2 160 pixels
    Display aspect ratio        : 16:9
    Frame rate mode             : Constant
    Frame rate                  : 23.976 (24000/1001) FPS
    Color space                 : YUV
    Chroma subsampling          : 4:2:0 (Type 2)
    Bit depth                   : 10 bits
    Bits/(Pixel*Frame)          : 0.294
    Stream size                 : 39.7 GiB (91%)
    Default                     : Yes
    Forced                      : No
    Color range                 : Limited
    Color primaries             : BT.2020
    Transfer characteristics    : PQ
    Matrix coefficients         : BT.2020 non-constant
    Mastering display color pri : Display P3
    Mastering display luminance : min: 0.0050 cd/m2, max: 4000 cd/m2
    Maximum Content Light Level : 1000 cd/m2
    Maximum Frame-Average Light : 216 cd/m2
    Original source medium      : Blu-ray

    Audio #1
    ID                          : 2
    ID in the original source m : 4352 (0x1100)
    Format                      : MLP FBA 16-ch
    Format/Info                 : Meridian Lossless Packing FBA with 16-channel presentation
    Commercial name             : Dolby TrueHD with Dolby Atmos
    Codec ID                    : A_TRUEHD
    Duration                    : 1 h 37 min
    Bit rate mode               : Variable
    Bit rate                    : 4 224 kb/s
    Maximum bit rate            : 7 821 kb/s
    Channel(s)                  : 8 channels
    Channel layout              : L R C LFE Ls Rs Lb Rb
    Sampling rate               : 48.0 kHz
    Frame rate                  : 1 200.000 FPS (40 SPF)
    Compression mode            : Lossless
    Stream size                 : 2.86 GiB (7%)
    Language                    : English
    Default                     : No
    Forced                      : No
    Original source medium      : Blu-ray
    Number of dynamic objects   : 11
    Bed channel count           : 1 channel
    Bed channel configuration   : LFE

    Audio #2
    ID                          : 3
    ID in the original source m : 4352 (0x1100)
    Format                      : AC-3
    Format/Info                 : Audio Coding 3
    Commercial name             : Dolby Digital
    Codec ID                    : A_AC3
    Duration                    : 1 h 37 min
    Bit rate mode               : Constant
    Bit rate                    : 640 kb/s
    Channel(s)                  : 6 channels
    Channel layout              : L R C LFE Ls Rs
    Sampling rate               : 48.0 kHz
    Frame rate                  : 31.250 FPS (1536 SPF)
    Compression mode            : Lossy
    Stream size                 : 444 MiB (1%)
    Language                    : English
    Service kind                : Complete Main
    Default                     : No
    Forced                      : No
    Original source medium      : Blu-ray

    Audio #3
    ID                          : 4
    ID in the original source m : 4357 (0x1105)
    Format                      : AC-3
    Format/Info                 : Audio Coding 3
    Commercial name             : Dolby Digital
    Codec ID                    : A_AC3
    Duration                    : 1 h 37 min
    Bit rate mode               : Constant
    Bit rate                    : 640 kb/s
    Channel(s)                  : 6 channels
    Channel layout              : L R C LFE Ls Rs
    Sampling rate               : 48.0 kHz
    Frame rate                  : 31.250 FPS (1536 SPF)
    Compression mode            : Lossy
    Stream size                 : 444 MiB (1%)
    Language                    : Spanish
    Service kind                : Complete Main
    Default                     : Yes
    Forced                      : No
    Original source medium      : Blu-ray

    Text
    ID                          : 5
    ID in the original source m : 4777 (0x12A9)
    Format                      : PGS
    Muxing mode                 : zlib
    Codec ID                    : S_HDMV/PGS
    Codec ID/Info               : Picture based subtitle format used on BDs/HD-DVDs
    Duration                    : 1 h 35 min
    Bit rate                    : 6 774 b/s
    Count of elements           : 665
    Stream size                 : 4.64 MiB (0%)
    Language                    : Spanish
    Default                     : No
    Forced                      : No
    Original source medium      : Blu-ray

    Menu
    00:00:00.000                : Chapter 01
    00:06:39.190                : Chapter 02
    00:12:16.318                : Chapter 03
    00:17:00.269                : Chapter 04
    00:26:28.169                : Chapter 05
    00:33:26.337                : Chapter 06
    00:38:06.701                : Chapter 07
    00:45:53.751                : Chapter 08
    00:51:18.033                : Chapter 09
    00:55:35.915                : Chapter 10
    01:02:21.279                : Chapter 11
    01:08:43.828                : Chapter 12
    01:16:31.920                : Chapter 13
    01:21:25.881                : Chapter 14
    01:28:12.996                : Chapter 15

  • Peso: 43.5 GiB

Sinopsis

Tras los fatales acontecimientos sucedidos en la primera parte, la familia Abbot debe enfrentarse a los peligros del mundo exterior mientras luchan en silencio por sobrevivir. Forzados a aventurarse en lo desconocido, pronto se dan cuenta de que las criaturas que cazan orientadas por el sonido no son la única amenaza que acecha más allá del camino de arena. Secuela de la exitosa producción «Un lugar tranquilo» (A Quiet Place, 2018).

 

Latino: AC3 5.1  –  Ingles: TrueHD 7.1 + AC3 5.1

Ficha técnica

Video trailer de la película

Enlaces de descarga

Rip de Bluray

Descargar A Quiet Place Part II (2021) REMUX 4K HDR Latino – CMHDD


Aportes de DPeliculasHDmega la pass es:dpeliculashdmega.org Aportes de CinemaniaHD la pass es:cinemaniahdd.com
Guardado en : Ciencia ficción , Suspenso , Terror

Películas relacionadas

descargar A Quiet Place Part II (2021) REMUX 4K HDR Latino – CMHDD Full 1080p 1080p gratis, A Quiet Place Part II (2021) REMUX 4K HDR Latino – CMHDD Full 1080p mega 1 link, A Quiet Place Part II (2021) REMUX 4K HDR Latino – CMHDD Full 1080p pelicula completa, descargar A Quiet Place Part II (2021) REMUX 4K HDR Latino – CMHDD Full 1080p gratis en mega.

A Quiet Place Part II (2021) REMUX 4K HDR Latino – CMHDD pelicula full hd, A Quiet Place Part II (2021) REMUX 4K HDR Latino – CMHDD mega latino, A Quiet Place Part II (2021) REMUX 4K HDR Latino – CMHDD 4k latino, A Quiet Place Part II (2021) REMUX 4K HDR Latino – CMHDD pelicula completa, A Quiet Place Part II (2021) REMUX 4K HDR Latino – CMHDD descargar gratis, descargar A Quiet Place Part II (2021) REMUX 4K HDR Latino – CMHDD pelicula latino, A Quiet Place Part II (2021) REMUX 4K HDR Latino – CMHDD 1 link mega, A Quiet Place Part II (2021) REMUX 4K HDR Latino – CMHDD 1 link google drive, A Quiet Place Part II (2021) REMUX 4K HDR Latino – CMHDD hd 1080p latino.
Comentarios 0