×

¿Problemas para descargar con Mozilla, EDGE? Deshabilita la opción "Abrir vinculos en una pestaña nueva" tal como lo muestra ésta imagen.

A Quiet Place Part II (2020) REMUX 4K HDR Latino – CMHDD

214 vistas

Información de A Quiet Place Part II (2020) REMUX 4K HDR Latino – CMHDD

Datos de la película

  • Calidad: 4K HDR
  • Audio: Español Latino AC3 5.1 BLURAY - Ingles AC3 5.1 BLURAY
  • Subtitulos: Español Latino SRT- FORZADOS SRT
  • Resolución: 3840x1600p
  • Formato:
  • Codec: H.264
  • Encoder: Dracarys
  • Mediainfo: Clic para Mostrar Datos Ver
  • Format                      : Matroska
    Format version              : Version 4
    File size                   : 46.1 GiB
    Duration                    : 1 h 37 min
    Overall bit rate mode       : Variable
    Overall bit rate            : 68.0 Mb/s
    Movie name                  : A Quiet Place Part II (2020) REMUX 4K HDR Latino - CMHDD
    Encoded date                : UTC 2023-12-20 00:14:27
    Writing application         : mkvmerge v47.0.0 ('Black Flag') 64-bit
    Writing library             : libebml v1.3.10 + libmatroska v1.5.2

    Video
    ID                          : 1
    ID in the original source m : 4113 (0x1011)
    Format                      : HEVC
    Format/Info                 : High Efficiency Video Coding
    Format profile              : Main 10@L5.1@High
    HDR format                  : SMPTE ST 2086, HDR10 compatible
    Codec ID                    : V_MPEGH/ISO/HEVC
    Duration                    : 1 h 37 min
    Bit rate                    : 62.4 Mb/s
    Width                       : 3 840 pixels
    Height                      : 2 160 pixels
    Display aspect ratio        : 16:9
    Frame rate mode             : Constant
    Frame rate                  : 23.976 (24000/1001) FPS
    Color space                 : YUV
    Chroma subsampling          : 4:2:0 (Type 2)
    Bit depth                   : 10 bits
    Bits/(Pixel*Frame)          : 0.314
    Stream size                 : 42.3 GiB (92%)
    Default                     : Yes
    Forced                      : No
    Color range                 : Limited
    Color primaries             : BT.2020
    Transfer characteristics    : PQ
    Matrix coefficients         : BT.2020 non-constant
    Mastering display color pri : Display P3
    Mastering display luminance : min: 0.0050 cd/m2, max: 4000 cd/m2
    Maximum Content Light Level : 1000 cd/m2
    Maximum Frame-Average Light : 216 cd/m2
    Original source medium      : Blu-ray

    Audio #1
    ID                          : 2
    Format                      : AC-3
    Format/Info                 : Audio Coding 3
    Commercial name             : Dolby Digital
    Codec ID                    : A_AC3
    Duration                    : 1 h 37 min
    Bit rate mode               : Constant
    Bit rate                    : 640 kb/s
    Channel(s)                  : 6 channels
    Channel layout              : L R C LFE Ls Rs
    Sampling rate               : 48.0 kHz
    Frame rate                  : 31.250 FPS (1536 SPF)
    Compression mode            : Lossy
    Stream size                 : 444 MiB (1%)
    Language                    : Spanish
    Service kind                : Complete Main
    Default                     : Yes
    Forced                      : Yes

    Audio #2
    ID                          : 3
    Format                      : AC-3
    Format/Info                 : Audio Coding 3
    Commercial name             : Dolby Digital
    Codec ID                    : A_AC3
    Duration                    : 1 h 37 min
    Bit rate mode               : Constant
    Bit rate                    : 640 kb/s
    Channel(s)                  : 6 channels
    Channel layout              : L R C LFE Ls Rs
    Sampling rate               : 48.0 kHz
    Frame rate                  : 31.250 FPS (1536 SPF)
    Compression mode            : Lossy
    Stream size                 : 444 MiB (1%)
    Language                    : English
    Service kind                : Complete Main
    Default                     : No
    Forced                      : No

    Audio #3
    ID                          : 4
    Format                      : MLP FBA 16-ch
    Format/Info                 : Meridian Lossless Packing FBA with 16-channel presentation
    Commercial name             : Dolby TrueHD with Dolby Atmos
    Codec ID                    : A_TRUEHD
    Duration                    : 1 h 37 min
    Bit rate mode               : Variable
    Bit rate                    : 4 224 kb/s
    Maximum bit rate            : 7 821 kb/s
    Channel(s)                  : 8 channels
    Channel layout              : L R C LFE Ls Rs Lb Rb
    Sampling rate               : 48.0 kHz
    Frame rate                  : 1 200.000 FPS (40 SPF)
    Compression mode            : Lossless
    Stream size                 : 2.86 GiB (6%)
    Language                    : English
    Default                     : No
    Forced                      : No
    Number of dynamic objects   : 11
    Bed channel count           : 1 channel
    Bed channel configuration   : LFE

    Text #1
    ID                          : 5
    Format                      : UTF-8
    Codec ID                    : S_TEXT/UTF8
    Codec ID/Info               : UTF-8 Plain Text
    Duration                    : 1 h 24 min
    Bit rate                    : 2 b/s
    Frame rate                  : 0.015 FPS
    Count of elements           : 77
    Stream size                 : 1.42 KiB (0%)
    Title                       : Forzados SRT
    Language                    : Spanish
    Default                     : Yes
    Forced                      : Yes

    Text #2
    ID                          : 6
    Format                      : UTF-8
    Codec ID                    : S_TEXT/UTF8
    Codec ID/Info               : UTF-8 Plain Text
    Duration                    : 1 h 24 min
    Bit rate                    : 12 b/s
    Frame rate                  : 0.065 FPS
    Count of elements           : 326
    Stream size                 : 7.65 KiB (0%)
    Language                    : Spanish
    Default                     : No
    Forced                      : No

    Text #3
    ID                          : 7
    Format                      : PGS
    Muxing mode                 : zlib
    Codec ID                    : S_HDMV/PGS
    Codec ID/Info               : Picture based subtitle format used on BDs/HD-DVDs
    Duration                    : 1 h 35 min
    Bit rate                    : 1 008 b/s
    Frame rate                  : 0.032 FPS
    Count of elements           : 184
    Stream size                 : 707 KiB (0%)
    Title                       : Forzados PGS
    Language                    : Spanish
    Default                     : No
    Forced                      : No

    Text #4
    ID                          : 8
    Format                      : PGS
    Muxing mode                 : zlib
    Codec ID                    : S_HDMV/PGS
    Codec ID/Info               : Picture based subtitle format used on BDs/HD-DVDs
    Duration                    : 1 h 35 min
    Bit rate                    : 6 774 b/s
    Frame rate                  : 0.116 FPS
    Count of elements           : 665
    Stream size                 : 4.64 MiB (0%)
    Language                    : Spanish
    Default                     : No
    Forced                      : No

    Menu
    00:00:00.000                : en:Chapter 1
    00:06:39.190                : en:Chapter 2
    00:12:16.319                : en:Chapter 3
    00:17:00.269                : en:Chapter 4
    00:26:28.170                : en:Chapter 5
    00:33:26.338                : en:Chapter 6
    00:38:06.701                : en:Chapter 7
    00:45:53.751                : en:Chapter 8
    00:51:18.033                : en:Chapter 9
    00:55:35.916                : en:Chapter 10
    01:02:21.279                : en:Chapter 11
    01:08:43.828                : en:Chapter 12
    01:16:31.921                : en:Chapter 13
    01:21:25.881                : en:Chapter 14
    01:28:12.996                : en:Chapter 15

     

  • Peso: 46.1 GiB

Sinopsis

Tras los fatales acontecimientos sucedidos en la primera parte, la familia Abbot debe enfrentarse a los peligros del mundo exterior mientras luchan en silencio por sobrevivir. Forzados a aventurarse en lo desconocido, pronto se dan cuenta de que las criaturas que cazan orientadas por el sonido no son la única amenaza que acecha más allá del camino de arena. Secuela de la exitosa producción «Un lugar tranquilo» (A Quiet Place, 2018).

Ficha técnica

Video trailer de la película

Enlaces de descarga

Rip de Bluray

Descargar A Quiet Place Part II (2020) REMUX 4K HDR Latino – CMHDD




Aportes de DPeliculasHDmega la pass es:dpeliculashdmega.org Aportes de CinemaniaHD la pass es:cinemaniahdd.com Aportes recientes:cinemaniahdd.net
Guardado en : Ciencia ficción , Suspenso , Terror

Películas relacionadas

descargar A Quiet Place Part II (2020) REMUX 4K HDR Latino – CMHDD 4K HDR 1080p gratis, A Quiet Place Part II (2020) REMUX 4K HDR Latino – CMHDD 4K HDR mega 1 link, A Quiet Place Part II (2020) REMUX 4K HDR Latino – CMHDD 4K HDR pelicula completa, descargar A Quiet Place Part II (2020) REMUX 4K HDR Latino – CMHDD 4K HDR gratis en mega.

A Quiet Place Part II (2020) REMUX 4K HDR Latino – CMHDD pelicula full hd, A Quiet Place Part II (2020) REMUX 4K HDR Latino – CMHDD mega latino, A Quiet Place Part II (2020) REMUX 4K HDR Latino – CMHDD 4k latino, A Quiet Place Part II (2020) REMUX 4K HDR Latino – CMHDD pelicula completa, A Quiet Place Part II (2020) REMUX 4K HDR Latino – CMHDD descargar gratis, descargar A Quiet Place Part II (2020) REMUX 4K HDR Latino – CMHDD pelicula latino, A Quiet Place Part II (2020) REMUX 4K HDR Latino – CMHDD 1 link mega, A Quiet Place Part II (2020) REMUX 4K HDR Latino – CMHDD 1 link google drive, A Quiet Place Part II (2020) REMUX 4K HDR Latino – CMHDD hd 1080p latino.
Comentarios 0