Un Lugar En Silencio Parte II (2021) WEB 4K UHD HDR SUB

108 vistas
1 estrella2 estrellas3 estrellas4 estrellas5 estrellas (1 votos, promedio: 5,00 de 5)
Cargando...

Información de Un Lugar En Silencio Parte II (2021) WEB 4K UHD HDR SUB

Datos de la película

  • Calidad: WEBDL
  • Audio: Ingles AC3 5.1 AMAZON
  • Subtitulos: Español Latino SRT - Ingles SRT
  • Resolución: 3840x1606p
  • Formato: MKV
  • Codec: HEVC
  • Encoder: CinefiloCool
  • Mediainfo: Clic para Mostrar Datos Ver
  • Un Lugar En Silencio Parte II (2021) WEB UHD HDR SUB.mkv
    Format                      : Matroska
    Format version              : Version 4
    File size                   : 10.7 GiB
    Duration                    : 1 h 37 min
    Overall bit rate            : 15.8 Mb/s
    Movie name                  : A Quiet Place Part II (2021) CinemaniaHDD.Net
    Encoded date                : UTC 2021-06-28 06:19:54
    Writing application         : mkvmerge v56.1.0 ('My Friend') 64-bit
    Writing library             : libebml v1.4.2 + libmatroska v1.6.4
    Attachments                 : CINEMANIAHD.png

    Video
    ID                          : 1
    Format                      : HEVC
    Format/Info                 : High Efficiency Video Coding
    Format profile              : Main 10@L5@High
    HDR format                  : SMPTE ST 2086, HDR10 compatible
    Codec ID                    : V_MPEGH/ISO/HEVC
    Duration                    : 1 h 37 min
    Bit rate                    : 14.4 Mb/s
    Width                       : 3 840 pixels
    Height                      : 1 606 pixels
    Display aspect ratio        : 2.40:1
    Frame rate mode             : Constant
    Frame rate                  : 23.976 (24000/1001) FPS
    Color space                 : YUV
    Chroma subsampling          : 4:2:0 (Type 2)
    Bit depth                   : 10 bits
    Bits/(Pixel*Frame)          : 0.097
    Stream size                 : 9.76 GiB (91%)
    Title                       : Web 2160p HDR [CinemaniaHDD]
    Default                     : Yes
    Forced                      : Yes
    Color range                 : Limited
    Color primaries             : BT.2020
    Transfer characteristics    : PQ
    Matrix coefficients         : BT.2020 non-constant
    Mastering display color pri : Display P3
    Mastering display luminance : min: 0.0050 cd/m2, max: 1000 cd/m2
    Maximum Content Light Level : 1450 cd/m2
    Maximum Frame-Average Light : 278 cd/m2

    Audio #1
    ID                          : 2
    Format                      : E-AC-3 JOC
    Format/Info                 : Enhanced AC-3 with Joint Object Coding
    Commercial name             : Dolby Digital Plus with Dolby Atmos
    Codec ID                    : A_EAC3
    Duration                    : 1 h 37 min
    Bit rate mode               : Constant
    Bit rate                    : 768 kb/s
    Channel(s)                  : 6 channels
    Channel layout              : L R C LFE Ls Rs
    Sampling rate               : 48.0 kHz
    Frame rate                  : 31.250 FPS (1536 SPF)
    Compression mode            : Lossy
    Stream size                 : 533 MiB (5%)
    Title                       : Ingles [CinemaniaHDD]
    Language                    : English
    Service kind                : Complete Main
    Default                     : Yes
    Forced                      : No
    Complexity index            : 16
    Number of dynamic objects   : 15
    Bed channel count           : 1 channel
    Bed channel configuration   : LFE

    Audio #2
    ID                          : 3
    Format                      : AC-3
    Format/Info                 : Audio Coding 3
    Commercial name             : Dolby Digital
    Codec ID                    : A_AC3
    Duration                    : 1 h 37 min
    Bit rate mode               : Constant
    Bit rate                    : 640 kb/s
    Channel(s)                  : 6 channels
    Channel layout              : L R C LFE Ls Rs
    Sampling rate               : 48.0 kHz
    Frame rate                  : 31.250 FPS (1536 SPF)
    Compression mode            : Lossy
    Stream size                 : 444 MiB (4%)
    Title                       : Ingles AC3 [CinemaniaHDD]
    Language                    : English
    Service kind                : Complete Main
    Default                     : No
    Forced                      : No

    Text #1
    ID                          : 4
    Format                      : UTF-8
    Codec ID                    : S_TEXT/UTF8
    Codec ID/Info               : UTF-8 Plain Text
    Duration                    : 1 h 35 min
    Bit rate                    : 10 b/s
    Count of elements           : 329
    Stream size                 : 7.61 KiB (0%)
    Title                       : Español-SRT [CinemaniaHDD]
    Language                    : Spanish
    Default                     : Yes
    Forced                      : Yes

    Text #2
    ID                          : 5
    Format                      : UTF-8
    Codec ID                    : S_TEXT/UTF8
    Codec ID/Info               : UTF-8 Plain Text
    Duration                    : 1 h 26 min
    Bit rate                    : 18 b/s
    Count of elements           : 563
    Stream size                 : 11.9 KiB (0%)
    Title                       : Ingles-SRT [CinemaniaHDD]
    Language                    : English
    Default                     : No
    Forced                      : No

    Menu
    00:00:00.000                : Scene 1
    00:06:39.107                : Scene 2
    00:12:16.319                : Scene 3
    00:17:00.270                : Scene 4
    00:26:28.171                : Scene 5
    00:33:26.339                : Scene 6
    00:38:06.703                : Scene 7
    00:45:53.753                : Scene 8
    00:51:18.036                : Scene 9
    00:55:35.919                : Scene 10
    01:02:21.282                : Scene 11
    01:08:43.832                : Scene 12
    01:16:31.925                : Scene 13
    01:21:25.885                : Scene 14
    01:28:11.833                : Scene 15

  • Peso: 10.7 GiB

Sinopsis

Descargar Un Lugar En Silencio Parte II (2021) WEB 4K UHD HDR SUB. Los Abbott están de vuelta. Después de los eventos ocurridos en Un lugar tranquilo (2018) se enfrentarán a los terrores del mundo exterior. Evelyn (Emily Blunt) junto con sus hijos Regan (Millicent Simmonds) y Marcus (Noah Jupe) además de su bebé, se adentrarán en los bosques, decididos a traspasar los límites y adentrarse en lo desconocido.

Ficha técnica

Video trailer de la película

Enlaces de descarga

Rip de Bluray

Descargar Un Lugar En Silencio Parte II (2021) WEB 4K UHD HDR SUB




Aportes de DPeliculasHDmega la pass es:dpeliculashdmega.org Aportes de CinemaniaHD la pass es:cinemaniahdd.com

Películas relacionadas

Un Lugar En Silencio Parte II (2021) WEB 4K UHD HDR SUB pelicula full hd, Un Lugar En Silencio Parte II (2021) WEB 4K UHD HDR SUB mega latino, Un Lugar En Silencio Parte II (2021) WEB 4K UHD HDR SUB 4k latino, Un Lugar En Silencio Parte II (2021) WEB 4K UHD HDR SUB pelicula completa, Un Lugar En Silencio Parte II (2021) WEB 4K UHD HDR SUB descargar gratis, descargar Un Lugar En Silencio Parte II (2021) WEB 4K UHD HDR SUB pelicula latino, Un Lugar En Silencio Parte II (2021) WEB 4K UHD HDR SUB 1 link mega, Un Lugar En Silencio Parte II (2021) WEB 4K UHD HDR SUB 1 link google drive, Un Lugar En Silencio Parte II (2021) WEB 4K UHD HDR SUB hd 1080p latino.