×

¿Problemas para descargar con Mozilla, EDGE? Deshabilita la opción "Abrir vinculos en una pestaña nueva" tal como lo muestra ésta imagen.

A Quiet Place (2018) REMUX 4K HDR Latino – CMHDD

119 vistas

Información de A Quiet Place (2018) REMUX 4K HDR Latino – CMHDD

Datos de la película

  • Calidad: 4K HDR
  • Audio: Español Latino AC3 5.1 BLURAY - Ingles AC3 5.1 BLURAY
  • Subtitulos: Español Latino SRT- FORZADOS SRT
  • Resolución: 3840x1600p
  • Formato: MKV
  • Codec: H.264
  • Encoder: Dracarys
  • Mediainfo: Clic para Mostrar Datos Ver
  • Format                      : Matroska
    Format version              : Version 4
    File size                   : 49.9 GiB
    Duration                    : 1 h 30 min
    Overall bit rate mode       : Variable
    Overall bit rate            : 79.2 Mb/s
    Movie name                  : A Quiet Place (2018) REMUX 4K HDR Latino - CMHDD
    Encoded date                : UTC 2023-12-20 00:10:29
    Writing application         : mkvmerge v47.0.0 ('Black Flag') 64-bit
    Writing library             : libebml v1.3.10 + libmatroska v1.5.2

    Video
    ID                          : 1
    ID in the original source m : 4113 (0x1011)
    Format                      : HEVC
    Format/Info                 : High Efficiency Video Coding
    Format profile              : Main 10@L5.1@High
    HDR format                  : SMPTE ST 2086, HDR10 compatible
    Codec ID                    : V_MPEGH/ISO/HEVC
    Duration                    : 1 h 30 min
    Bit rate                    : 73.9 Mb/s
    Width                       : 3 840 pixels
    Height                      : 2 160 pixels
    Display aspect ratio        : 16:9
    Frame rate mode             : Constant
    Frame rate                  : 23.976 (24000/1001) FPS
    Color space                 : YUV
    Chroma subsampling          : 4:2:0 (Type 2)
    Bit depth                   : 10 bits
    Bits/(Pixel*Frame)          : 0.372
    Stream size                 : 46.6 GiB (93%)
    Default                     : Yes
    Forced                      : No
    Color range                 : Limited
    Color primaries             : BT.2020
    Transfer characteristics    : PQ
    Matrix coefficients         : BT.2020 non-constant
    Mastering display color pri : Display P3
    Mastering display luminance : min: 0.0001 cd/m2, max: 1000 cd/m2
    Original source medium      : Blu-ray

    Audio #1
    ID                          : 2
    Format                      : AC-3
    Format/Info                 : Audio Coding 3
    Commercial name             : Dolby Digital
    Codec ID                    : A_AC3
    Duration                    : 1 h 30 min
    Bit rate mode               : Constant
    Bit rate                    : 640 kb/s
    Channel(s)                  : 6 channels
    Channel layout              : L R C LFE Ls Rs
    Sampling rate               : 48.0 kHz
    Frame rate                  : 31.250 FPS (1536 SPF)
    Compression mode            : Lossy
    Delay relative to video     : 5 ms
    Stream size                 : 413 MiB (1%)
    Language                    : Spanish
    Service kind                : Complete Main
    Default                     : Yes
    Forced                      : Yes

    Audio #2
    ID                          : 3
    Format                      : AC-3
    Format/Info                 : Audio Coding 3
    Commercial name             : Dolby Digital
    Format settings             : Dolby Surround EX
    Codec ID                    : A_AC3
    Duration                    : 1 h 30 min
    Bit rate mode               : Constant
    Bit rate                    : 640 kb/s
    Channel(s)                  : 6 channels
    Channel layout              : L R C LFE Ls Rs
    Sampling rate               : 48.0 kHz
    Frame rate                  : 31.250 FPS (1536 SPF)
    Compression mode            : Lossy
    Stream size                 : 413 MiB (1%)
    Language                    : English
    Service kind                : Complete Main
    Default                     : No
    Forced                      : No

    Audio #3
    ID                          : 4
    Format                      : MLP FBA 16-ch
    Format/Info                 : Meridian Lossless Packing FBA with 16-channel presentation
    Commercial name             : Dolby TrueHD with Dolby Atmos
    Codec ID                    : A_TRUEHD
    Duration                    : 1 h 30 min
    Bit rate mode               : Variable
    Bit rate                    : 3 890 kb/s
    Maximum bit rate            : 8 064 kb/s
    Channel(s)                  : 8 channels
    Channel layout              : L R C LFE Ls Rs Lb Rb
    Sampling rate               : 48.0 kHz
    Frame rate                  : 1 200.000 FPS (40 SPF)
    Compression mode            : Lossless
    Stream size                 : 2.45 GiB (5%)
    Language                    : English
    Default                     : No
    Forced                      : No
    Number of dynamic objects   : 11
    Bed channel count           : 1 channel
    Bed channel configuration   : LFE

    Text #1
    ID                          : 5
    Format                      : UTF-8
    Codec ID                    : S_TEXT/UTF8
    Codec ID/Info               : UTF-8 Plain Text
    Duration                    : 1 h 19 min
    Bit rate                    : 4 b/s
    Frame rate                  : 0.028 FPS
    Count of elements           : 132
    Stream size                 : 2.47 KiB (0%)
    Title                       : Forzados
    Language                    : Spanish
    Default                     : Yes
    Forced                      : Yes

    Text #2
    ID                          : 6
    Format                      : UTF-8
    Codec ID                    : S_TEXT/UTF8
    Codec ID/Info               : UTF-8 Plain Text
    Duration                    : 1 h 23 min
    Bit rate                    : 5 b/s
    Frame rate                  : 0.033 FPS
    Count of elements           : 163
    Stream size                 : 3.28 KiB (0%)
    Language                    : Spanish
    Default                     : No
    Forced                      : No

    Text #3
    ID                          : 7
    Format                      : PGS
    Muxing mode                 : zlib
    Codec ID                    : S_HDMV/PGS
    Codec ID/Info               : Picture based subtitle format used on BDs/HD-DVDs
    Duration                    : 1 h 29 min
    Bit rate                    : 1 897 b/s
    Frame rate                  : 0.064 FPS
    Count of elements           : 342
    Stream size                 : 1.22 MiB (0%)
    Language                    : Spanish
    Default                     : No
    Forced                      : No

    Menu #1
    00:00:00.000                : en:Chapter 1
    00:10:19.118                : en:Chapter 2
    00:14:38.002                : en:Chapter 3
    00:21:52.895                : en:Chapter 4
    00:25:09.675                : en:Chapter 5
    00:31:05.155                : en:Chapter 6
    00:36:23.390                : en:Chapter 7
    00:43:47.291                : en:Chapter 8
    00:47:42.693                : en:Chapter 9
    00:53:48.183                : en:Chapter 10
    01:00:31.419                : en:Chapter 11
    01:05:55.368                : en:Chapter 12
    01:10:57.837                : en:Chapter 13
    01:15:29.108                : en:Chapter 14
    01:23:47.272                : en:Chapter 15

    Menu #2
    00:00:00.000                : Chapter 1
    00:10:19.244                : Chapter 2
    00:14:38.044                : Chapter 3
    00:21:52.937                : Chapter 4
    00:25:09.717                : Chapter 5
    00:31:05.197                : Chapter 6
    00:36:23.515                : Chapter 7
    00:43:47.416                : Chapter 8
    00:47:42.735                : Chapter 9
    00:53:48.225                : Chapter 10
    01:00:31.586                : Chapter 11
    01:05:55.410                : Chapter 12
    01:10:57.879                : Chapter 13
    01:15:29.150                : Chapter 14
    01:23:47.314                : Chapter 15

     

  • Peso: 49.9 GiB

Sinopsis

Evelyn y Lee Abbott son una pareja con tres hijos que vive en una granja aislada de toda civilización al norte de Nueva York. Esta familia ha sobrevivido durante meses en un mundo invadido y amenazado por mortales criaturas extraterrestres que se guían por el sonido para cazar. En este contexto en el que una palabra puede significar la muerte, la familia Abbott vive silenciosamente, andan descalzos y se comunican por medio del lenguaje de señas.

Ficha técnica

Video trailer de la película

Enlaces de descarga

Rip de Bluray

Descargar A Quiet Place (2018) REMUX 4K HDR Latino – CMHDD




Aportes de DPeliculasHDmega la pass es:dpeliculashdmega.org Aportes de CinemaniaHD la pass es:cinemaniahdd.com Aportes recientes:cinemaniahdd.net
Guardado en : Ciencia ficción , Drama , Terror

Películas relacionadas

descargar A Quiet Place (2018) REMUX 4K HDR Latino – CMHDD 4K HDR 1080p gratis, A Quiet Place (2018) REMUX 4K HDR Latino – CMHDD 4K HDR mega 1 link, A Quiet Place (2018) REMUX 4K HDR Latino – CMHDD 4K HDR pelicula completa, descargar A Quiet Place (2018) REMUX 4K HDR Latino – CMHDD 4K HDR gratis en mega.

A Quiet Place (2018) REMUX 4K HDR Latino – CMHDD pelicula full hd, A Quiet Place (2018) REMUX 4K HDR Latino – CMHDD mega latino, A Quiet Place (2018) REMUX 4K HDR Latino – CMHDD 4k latino, A Quiet Place (2018) REMUX 4K HDR Latino – CMHDD pelicula completa, A Quiet Place (2018) REMUX 4K HDR Latino – CMHDD descargar gratis, descargar A Quiet Place (2018) REMUX 4K HDR Latino – CMHDD pelicula latino, A Quiet Place (2018) REMUX 4K HDR Latino – CMHDD 1 link mega, A Quiet Place (2018) REMUX 4K HDR Latino – CMHDD 1 link google drive, A Quiet Place (2018) REMUX 4K HDR Latino – CMHDD hd 1080p latino.
Comentarios 0