¿A quién te llevarías a una isla desierta? (2019) NF WEB-DL 1080p Castellano

359 vistas
1 estrella2 estrellas3 estrellas4 estrellas5 estrellas (Ninguna valoración todavía)
Cargando…

Información de ¿A quién te llevarías a una isla desierta? (2019) NF WEB-DL 1080p Castellano

Datos de la película

  • Calidad:
  • Audio: Español España AC3 5.1 Netflix - Ingles AC3 5.1
  • Subtitulos: No
  • Resolución: 1920x1080
  • Formato: MKV
  • Codec: H.264
  • Encoder: cinemaniahdd
  • Mediainfo: Clic para Mostrar Datos Ver
  • A quién te llevarías a una isla desierta (2019) NF WEB-DL 1080p Castellano.mkv
    Format                      : Matroska
    Format version              : Version 4
    File size                   : 2.02 GiB
    Duration                    : 1 h 33 min
    Overall bit rate mode       : Variable
    Overall bit rate            : 3 097 kb/s
    Movie name                  : CinemaniaHDD.Net
    Encoded date                : UTC 2019-04-12 16:18:59 / UTC 2019-04-08 08:02:04
    Writing application         : mkvmerge v22.0.0 ('At The End Of The World') 64-bit
    Writing library             : libebml v1.3.5 + libmatroska v1.4.8 / Lavf58.0.0

    Video
    ID                          : 1
    Format                      : AVC
    Format/Info                 : Advanced Video Codec
    Format profile              : [email protected]
    Format settings             : CABAC / 4 Ref Frames
    Format settings, CABAC      : Yes
    Format settings, ReFrames   : 4 frames
    Codec ID                    : V_MPEG4/ISO/AVC
    Duration                    : 1 h 33 min
    Bit rate mode               : Variable
    Bit rate                    : 2 268 kb/s
    Maximum bit rate            : 20.0 Mb/s
    Width                       : 1 920 pixels
    Height                      : 1 080 pixels
    Display aspect ratio        : 16:9
    Frame rate mode             : Constant
    Frame rate                  : 24.000 FPS
    Color space                 : YUV
    Chroma subsampling          : 4:2:0
    Bit depth                   : 8 bits
    Scan type                   : Progressive
    Bits/(Pixel*Frame)          : 0.046
    Stream size                 : 1.48 GiB (73%)
    Title                       : CinemaniaHDD.Net
    Writing library             : x264 core 148 r2715 7e75228
    Encoding settings           : cabac=1 / ref=4 / deblock=1:0:0 / analyse=0x3:0x111 / me=umh / subme=10 / psy=1 / psy_rd=1.00:0.00 / mixed_ref=1 / me_range=120 / chroma_me=1 / trellis=2 / 8x8dct=1 / cqm=0 / deadzone=21,11 / fast_pskip=1 / chroma_qp_offset=-2 / threads=8 / lookahead_threads=2 / sliced_threads=0 / nr=0 / decimate=1 / interlaced=0 / bluray_compat=0 / stitchable=1 / constrained_intra=0 / bframes=16 / b_pyramid=2 / b_adapt=2 / b_bias=0 / direct=3 / weightb=1 / open_gop=0 / weightp=2 / keyint=240 / keyint_min=121 / scenecut=0 / intra_refresh=0 / rc_lookahead=240 / rc=crf / mbtree=1 / crf=20.0 / qcomp=0.50 / qpmin=6 / qpmax=51 / qpstep=4 / vbv_maxrate=20000 / vbv_bufsize=25000 / crf_max=0.0 / nal_hrd=vbr / filler=0 / ip_ratio=1.40 / aq=1:0.80
    Default                     : Yes
    Forced                      : No
    Statistics Tags Issue       : mkvmerge v22.0.0 ('At The End Of The World') 64-bit 2019-04-12 16:18:59 / mkvmerge v22.0.0 ('At The End Of The World') 64-bit 2019-04-12 16:18:59 / UTC 2019-04-08 08:02:04
    FromStats_BitRate           : 2327442
    FromStats_Duration          : 01:33:34.209000000
    FromStats_FrameCount        : 134741
    FromStats_StreamSize        : 1633343442

    Audio #1
    ID                          : 2
    Format                      : AC-3
    Format/Info                 : Audio Coding 3
    Commercial name             : Dolby Digital
    Codec ID                    : A_AC3
    Duration                    : 1 h 33 min
    Bit rate mode               : Constant
    Bit rate                    : 384 kb/s
    Channel(s)                  : 6 channels
    Channel layout              : L R C LFE Ls Rs
    Sampling rate               : 48.0 kHz
    Frame rate                  : 31.250 FPS (1536 SPF)
    Bit depth                   : 16 bits
    Compression mode            : Lossy
    Stream size                 : 257 MiB (12%)
    Title                       : Castellano - CinemaniaHDD.Net
    Language                    : Spanish
    Service kind                : Complete Main
    Default                     : Yes
    Forced                      : No
    Statistics Tags Issue       : mkvmerge v22.0.0 ('At The End Of The World') 64-bit 2019-04-12 16:18:59 / mkvmerge v22.0.0 ('At The End Of The World') 64-bit 2019-04-12 16:18:59 / UTC 2019-04-08 08:02:04
    FromStats_BitRate           : 384000
    FromStats_Duration          : 01:33:34.496000000
    FromStats_FrameCount        : 175453
    FromStats_StreamSize        : 269495808

    Audio #2
    ID                          : 3
    Format                      : AC-3
    Format/Info                 : Audio Coding 3
    Commercial name             : Dolby Digital
    Codec ID                    : A_AC3
    Duration                    : 1 h 33 min
    Bit rate mode               : Constant
    Bit rate                    : 384 kb/s
    Channel(s)                  : 6 channels
    Channel layout              : L R C LFE Ls Rs
    Sampling rate               : 48.0 kHz
    Frame rate                  : 31.250 FPS (1536 SPF)
    Bit depth                   : 16 bits
    Compression mode            : Lossy
    Stream size                 : 257 MiB (12%)
    Title                       : CinemaniaHDD.Net
    Language                    : English
    Service kind                : Complete Main
    Default                     : No
    Forced                      : No
    Statistics Tags Issue       : mkvmerge v22.0.0 ('At The End Of The World') 64-bit 2019-04-12 16:18:59 / mkvmerge v22.0.0 ('At The End Of The World') 64-bit 2019-04-12 16:18:59 / UTC 2019-04-08 08:02:04
    FromStats_BitRate           : 384000
    FromStats_Duration          : 01:33:34.496000000
    FromStats_FrameCount        : 175453
    FromStats_StreamSize        : 269495808

  • Peso: 2.02 GiB

Sinopsis

Marcos, Marta, Celeste y Eze han creado su propio universo en un destartalado piso compartido de la capital. Pero ya ni son universitarios, ni soñadores, ni adolescentes, aunque aún esperan ese gran momento que recordar siempre.

Ficha técnica

  • Titulo original: ¿A quién te llevarías a una isla desierta?
  • Fecha de lanzamiento: 22-03-2019
  • Director: Jota Linares
  • Género: Comedia, Drama
  • Puntuación: 0.0 0 votos
  • Duración:
    1h 30m

Video trailer de la película

Enlaces de descarga

Rip de Bluray

Descargar ¿A quién te llevarías a una isla desierta? (2019) NF WEB-DL 1080p Castellano




Aportes de DPeliculasHDmega la pass es:dpeliculashdmega.org Aportes de CinemaniaHD la pass es:cinemaniahdd.com
Guardado en : Comedia , Drama

Películas relacionadas

  • Arizona (2018) 1080p Latino

    2018
    Arizona (2018) 1080p Latino

    5.0 1h 25m 2018

    Ambientada en medio de la crisis de la vivienda de 2009, esta oscura y cómica historia sigue a Cassie...

    Director: Mara Herdmann

    Género: Comedia

    Actores: Vivian Nesbitt

  • Si La Colonia Hablara (2018) Remux 1080p Subtitulado

    2018
    Si La Colonia Hablara (2018) Remux 1080p Subtitulado

    5.0 1h 57m 2018

    Descargar Si La Colonia Hablara (2018) Remux 1080p Subtitulado. Basada en la novela de James Baldwin,...

    Director: Barry Jenkins

    Género: Crimen

    Actores: Teyonah Parris

  • Si La Colonia Hablara (2018) Full 1080p Subtitulado

    2018
    Si La Colonia Hablara (2018) Full 1080p Subtitulado

    5.0 1h 57m 2018

    Descargar Si La Colonia Hablara (2018) Full 1080p Subtitulado, Mega, Google Drive. Basada en la novela...

    Director: Barry Jenkins

    Género: Crimen

    Actores: Teyonah Parris

  • Si La Colonia Hablara (2018) 1080p Subtitulado

    2018
    Si La Colonia Hablara (2018) 1080p Subtitulado

    0.0 1h 57m 2018

    Descargar Si La Colonia Hablara (2018) 1080p Subtitulado, Mega, Google Drive. Basada en la novela de...

    Director: Barry Jenkins

    Género: Crimen

    Actores: Teyonah Parris

Comentarios 0