×

¿Problemas para descargar con Mozilla, EDGE? Deshabilita la opción "Abrir vinculos en una pestaña nueva" tal como lo muestra ésta imagen.

A Private War (2018) REMUX 1080p Latino

868 vistas

Información de A Private War (2018) REMUX 1080p Latino

Datos de la película

  • Calidad: Full 1080p
  • Audio: Se especifica abajo de la Sinopsis
  • Subtitulos: Español Latino PGS - Ingles PGS
  • Resolución: 1920x1080p
  • Formato: MKV
  • Codec: H.264
  • Encoder: CinemaniaHDD
  • Mediainfo: Clic para Mostrar Datos Ver
  • A Private War (2018) REMUX 1080p Latino-CMHDD.mkv
    Format                      : Matroska
    Format version              : Version 4
    File size                   : 27.0 GiB
    Duration                    : 1 h 50 min
    Overall bit rate mode       : Variable
    Overall bit rate            : 34.9 Mb/s
    Movie name                  : CinemaniaHDD.Net
    Encoded date                : UTC 2019-11-08 06:23:12
    Writing application         : mkvmerge v38.0.0 ('The Silent Type') 64-bit
    Writing library             : libebml v1.3.9 + libmatroska v1.5.2
    Attachments                 : CINEMANIAHD.png

    Video
    ID                          : 1
    Format                      : AVC
    Format/Info                 : Advanced Video Codec
    Format profile              : High@L4.1
    Format settings             : CABAC / 4 Ref Frames
    Format settings, CABAC      : Yes
    Format settings, ReFrames   : 4 frames
    Codec ID                    : V_MPEG4/ISO/AVC
    Duration                    : 1 h 50 min
    Bit rate mode               : Variable
    Bit rate                    : 31.1 Mb/s
    Maximum bit rate            : 35.0 Mb/s
    Width                       : 1 920 pixels
    Height                      : 1 080 pixels
    Display aspect ratio        : 16:9
    Frame rate mode             : Constant
    Frame rate                  : 23.976 (24000/1001) FPS
    Color space                 : YUV
    Chroma subsampling          : 4:2:0
    Bit depth                   : 8 bits
    Scan type                   : Progressive
    Bits/(Pixel*Frame)          : 0.626
    Stream size                 : 24.1 GiB (89%)
    Title                       : Full HD1080p [REMUX]
    Default                     : Yes
    Forced                      : No

    Audio #1
    ID                          : 2
    Format                      : AC-3
    Format/Info                 : Audio Coding 3
    Commercial name             : Dolby Digital
    Codec ID                    : A_AC3
    Duration                    : 1 h 50 min
    Bit rate mode               : Constant
    Bit rate                    : 256 kb/s
    Channel(s)                  : 2 channels
    Channel layout              : L R
    Sampling rate               : 48.0 kHz
    Frame rate                  : 31.250 FPS (1536 SPF)
    Bit depth                   : 16 bits
    Compression mode            : Lossy
    Stream size                 : 202 MiB (1%)
    Title                       : AC3_2.0_Capt_Esp
    Language                    : Spanish
    Service kind                : Complete Main
    Default                     : Yes
    Forced                      : Yes

    Audio #2
    ID                          : 3
    Format                      : DTS XLL
    Format/Info                 : Digital Theater Systems
    Commercial name             : DTS-HD Master Audio
    Codec ID                    : A_DTS
    Duration                    : 1 h 50 min
    Bit rate mode               : Variable
    Bit rate                    : 3 484 kb/s
    Channel(s)                  : 6 channels
    Channel layout              : C L R Ls Rs LFE
    Sampling rate               : 48.0 kHz
    Frame rate                  : 93.750 FPS (512 SPF)
    Bit depth                   : 24 bits
    Compression mode            : Lossless
    Stream size                 : 2.69 GiB (10%)
    Title                       : DTS-HD_5.1_Bluray_Eng
    Language                    : English
    Default                     : No
    Forced                      : No

    Text #1
    ID                          : 4
    Format                      : PGS
    Muxing mode                 : zlib
    Codec ID                    : S_HDMV/PGS
    Codec ID/Info               : Picture based subtitle format used on BDs/HD-DVDs
    Duration                    : 1 h 49 min
    Bit rate                    : 28.6 kb/s
    Count of elements           : 2118
    Stream size                 : 22.4 MiB (0%)
    Title                       : Sub_Esp [PGS]
    Language                    : Spanish
    Default                     : No
    Forced                      : No

    Text #2
    ID                          : 5
    Format                      : PGS
    Muxing mode                 : zlib
    Codec ID                    : S_HDMV/PGS
    Codec ID/Info               : Picture based subtitle format used on BDs/HD-DVDs
    Duration                    : 1 h 46 min
    Bit rate                    : 36.5 kb/s
    Count of elements           : 2621
    Stream size                 : 27.9 MiB (0%)
    Title                       : Sub_Eng [PGS]
    Language                    : English
    Default                     : No
    Forced                      : No

    Text #3
    ID                          : 6
    Format                      : UTF-8
    Codec ID                    : S_TEXT/UTF8
    Codec ID/Info               : UTF-8 Plain Text
    Duration                    : 1 h 49 min
    Bit rate                    : 46 b/s
    Count of elements           : 1058
    Stream size                 : 37.0 KiB (0%)
    Title                       : Sub_Esp
    Language                    : Spanish
    Default                     : No
    Forced                      : No

    Menu
    00:00:00.000                : :Chapter 1
    00:05:16.274                : :Chapter 2
    00:11:12.630                : :Chapter 3
    00:17:24.669                : :Chapter 4
    00:22:27.304                : :Chapter 5
    00:30:38.045                : :Chapter 6
    00:36:41.241                : :Chapter 7
    00:39:07.136                : :Chapter 8
    00:47:09.910                : :Chapter 9
    00:51:01.267                : :Chapter 10
    00:56:59.166                : :Chapter 11
    01:02:05.180                : :Chapter 12
    01:06:14.220                : :Chapter 13
    01:11:58.356                : :Chapter 14
    01:16:49.105                : :Chapter 15
    01:21:28.759                : :Chapter 16
    01:25:16.737                : :Chapter 17
    01:30:06.902                : :Chapter 18
    01:37:45.902                : :Chapter 19
    01:42:54.335                : :Chapter 20

  • Peso: 27.0 GiB

Sinopsis

Descargar A Private War (2018) REMUX 1080p Latino. Marie Colvin (Rosamund Pike) fue una periodista reconocida mundialmente por su trabajo en distintos conflictos bélicos. Testigo de algunas cruentas batallas recientes, especialmente de lo sucedido en Oriente Medio, Colvin contaba con el respeto tanto de los lectores como de sus compañeros de profesión por su enorme valentía y humildad. Sin embargo, su personalidad era caótica y autodestructiva: abusaba del alcohol y su vida personal era, un auténtico desastre. Tras recibir el impacto de una granada en Sri Lanka, comienza a llevar un distintivo parche en el ojo mientras se sienta a tomar martinis rodeada de la alta sociedad londinense a la que tanto aborrece, hasta que un día recibe el más peligroso de todos los encargos, que acepta junto a su también prestigioso fotógrafo de guerra, Paul Conroy (Jamie Dornan). Juntos viajan a Siria para cubrir lo que sucede en la ciudad de Homs, donde aprenderá el verdadero coste de la guerra, tanto física como psicológicamente.

Audio Español Latino AC3 2.0 Capturado – Ingles DTS-HD 5.1 Bluray

Nota: Actualizado con Audio Latino

Ficha técnica

  • Titulo original: A Private War
  • Fecha de lanzamiento: 16-11-2018 (United Kingdom, United States of America)
  • Director: Matthew Heineman
  • Género: Bélica, Drama, Remux

Video trailer de la película

Enlaces de descarga

Rip de Bluray

Descargar A Private War (2018) REMUX 1080p Latino




Aportes de DPeliculasHDmega la pass es:dpeliculashdmega.org Aportes de CinemaniaHD la pass es:cinemaniahdd.com
Guardado en : Bélica , Drama , Remux

Películas relacionadas

  • Wire Room (2022) REMUX 1080p Latino

    Wire Room (2022) REMUX 1080p Latino

    2022
    Wire Room (2022) REMUX 1080p Latino

    1h 37m 2022

    Descargar Wire Room (2022) REMUX 1080p Latino. Mientras está de servicio en la sala de cables, un agente...

    Director: Matt Eskandari

    Género: Acción

    Actores: Texas Battle

  • Alarido (2022) REMUX 1080p Latino

    Alarido (2022) REMUX 1080p Latino

    2022
    Alarido (2022) REMUX 1080p Latino

    1h 29m 2022

    Descargar Alarido (2022) REMUX 1080p Latino. Una joven madre soltera es cautiva junto con sus dos hijos...

    Director: D.J. Caruso

    Género: Remux

    Actores: Vincent Gallo

  • After: Amor infinito (2022) AMZN WEB-DL 1080p Latino

    After: Amor infinito (2022) AMZN WEB-DL 1080p Latino

    2022
    After: Amor infinito (2022) AMZN WEB-DL 1080p Latino

    1h 35m 2022

    Descargar After: Amor infinito (2022) AMZN WEB-DL 1080p Latino. El amor de Tessa y Hardin nunca ha sido...

    Director: Castille Landon

    Género: Drama

    Actores: Velizar Nikolaev Biney

descargar A Private War (2018) REMUX 1080p Latino Full 1080p 1080p gratis, A Private War (2018) REMUX 1080p Latino Full 1080p mega 1 link, A Private War (2018) REMUX 1080p Latino Full 1080p pelicula completa, descargar A Private War (2018) REMUX 1080p Latino Full 1080p gratis en mega.

A Private War (2018) REMUX 1080p Latino pelicula full hd, A Private War (2018) REMUX 1080p Latino mega latino, A Private War (2018) REMUX 1080p Latino 4k latino, A Private War (2018) REMUX 1080p Latino pelicula completa, A Private War (2018) REMUX 1080p Latino descargar gratis, descargar A Private War (2018) REMUX 1080p Latino pelicula latino, A Private War (2018) REMUX 1080p Latino 1 link mega, A Private War (2018) REMUX 1080p Latino 1 link google drive, A Private War (2018) REMUX 1080p Latino hd 1080p latino.
Comentarios 0