×

¿Problemas para descargar con Mozilla, EDGE? Deshabilita la opción "Abrir vinculos en una pestaña nueva" tal como lo muestra ésta imagen.

A Perfect Getaway (2009) UNRATED REMUX 1080p Latino – CMHDD

110 vistas

Información de A Perfect Getaway (2009) UNRATED REMUX 1080p Latino – CMHDD

Datos de la película

  • Calidad: Full 1080p
  • Audio: Español Latino AC3 5.1 BLURAY - Ingles DTS 5.1 BLURAY
  • Subtitulos: Español Latino SRT- FORZADOS SRT
  • Resolución: 19201080p
  • Formato: MKV
  • Codec: H.264
  • Encoder: Dracarys
  • Mediainfo: Clic para Mostrar Datos Ver
  • Format                      : Matroska
    Format version              : Version 4
    File size                   : 20.5 GiB
    Duration                    : 1 h 47 min
    Overall bit rate mode       : Variable
    Overall bit rate            : 27.3 Mb/s
    Movie name                  : A Perfect Getaway (2009) UNRATED REMUX 1080p Latino - CMHDD
    Encoded date                : UTC 2023-12-21 21:21:50
    Writing application         : mkvmerge v47.0.0 ('Black Flag') 64-bit
    Writing library             : libebml v1.3.10 + libmatroska v1.5.2

    Video
    ID                          : 1
    Format                      : AVC
    Format/Info                 : Advanced Video Codec
    Format profile              : High@L4.1
    Format settings             : CABAC / 3 Ref Frames
    Format settings, CABAC      : Yes
    Format settings, Reference  : 3 frames
    Codec ID                    : V_MPEG4/ISO/AVC
    Duration                    : 1 h 47 min
    Bit rate mode               : Variable
    Bit rate                    : 22.0 Mb/s
    Maximum bit rate            : 35.0 Mb/s
    Width                       : 1 920 pixels
    Height                      : 1 080 pixels
    Display aspect ratio        : 16:9
    Frame rate mode             : Constant
    Frame rate                  : 23.976 (24000/1001) FPS
    Standard                    : NTSC
    Color space                 : YUV
    Chroma subsampling          : 4:2:0
    Bit depth                   : 8 bits
    Scan type                   : Progressive
    Bits/(Pixel*Frame)          : 0.442
    Stream size                 : 16.5 GiB (81%)
    Default                     : Yes
    Forced                      : No
    Color range                 : Limited
    Color primaries             : BT.709
    Transfer characteristics    : BT.709
    Matrix coefficients         : BT.709

    Audio #1
    ID                          : 2
    Format                      : AC-3
    Format/Info                 : Audio Coding 3
    Commercial name             : Dolby Digital
    Codec ID                    : A_AC3
    Duration                    : 1 h 47 min
    Bit rate mode               : Constant
    Bit rate                    : 640 kb/s
    Channel(s)                  : 6 channels
    Channel layout              : L R C LFE Ls Rs
    Sampling rate               : 48.0 kHz
    Frame rate                  : 31.250 FPS (1536 SPF)
    Compression mode            : Lossy
    Delay relative to video     : 500 ms
    Stream size                 : 493 MiB (2%)
    Language                    : Spanish
    Service kind                : Complete Main
    Default                     : Yes
    Forced                      : Yes

    Audio #2
    ID                          : 3
    Format                      : DTS
    Format/Info                 : Digital Theater Systems
    Codec ID                    : A_DTS
    Duration                    : 1 h 47 min
    Bit rate mode               : Constant
    Bit rate                    : 768 kb/s
    Channel(s)                  : 6 channels
    Channel layout              : C L R Ls Rs LFE
    Sampling rate               : 48.0 kHz
    Frame rate                  : 93.750 FPS (512 SPF)
    Bit depth                   : 24 bits
    Compression mode            : Lossy
    Delay relative to video     : 500 ms
    Stream size                 : 591 MiB (3%)
    Language                    : Spanish
    Default                     : No
    Forced                      : No

    Audio #3
    ID                          : 4
    Format                      : DTS XLL
    Format/Info                 : Digital Theater Systems
    Commercial name             : DTS-HD Master Audio
    Codec ID                    : A_DTS
    Duration                    : 1 h 47 min
    Bit rate mode               : Variable
    Bit rate                    : 3 862 kb/s
    Channel(s)                  : 6 channels
    Channel layout              : C L R Ls Rs LFE
    Sampling rate               : 48.0 kHz
    Frame rate                  : 93.750 FPS (512 SPF)
    Bit depth                   : 24 bits
    Compression mode            : Lossless
    Stream size                 : 2.90 GiB (14%)
    Language                    : English
    Default                     : No
    Forced                      : No

    Text #1
    ID                          : 5
    Format                      : UTF-8
    Codec ID                    : S_TEXT/UTF8
    Codec ID/Info               : UTF-8 Plain Text
    Duration                    : 1 h 22 min
    Bit rate                    : 0 b/s
    Frame rate                  : 0.002 FPS
    Count of elements           : 10
    Stream size                 : 203 Bytes (0%)
    Title                       : Forzados SRT
    Language                    : Spanish
    Default                     : Yes
    Forced                      : Yes

    Text #2
    ID                          : 6
    Format                      : UTF-8
    Codec ID                    : S_TEXT/UTF8
    Codec ID/Info               : UTF-8 Plain Text
    Duration                    : 1 h 42 min
    Bit rate                    : 59 b/s
    Frame rate                  : 0.188 FPS
    Count of elements           : 1155
    Stream size                 : 44.9 KiB (0%)
    Language                    : Spanish
    Default                     : No
    Forced                      : No

    Text #3
    ID                          : 7
    Format                      : PGS
    Muxing mode                 : zlib
    Codec ID                    : S_HDMV/PGS
    Codec ID/Info               : Picture based subtitle format used on BDs/HD-DVDs
    Duration                    : 1 h 22 min
    Bit rate                    : 243 b/s
    Frame rate                  : 0.004 FPS
    Count of elements           : 20
    Stream size                 : 147 KiB (0%)
    Title                       : Forzados PGS
    Language                    : Spanish
    Default                     : No
    Forced                      : No

    Text #4
    ID                          : 8
    Format                      : PGS
    Muxing mode                 : zlib
    Codec ID                    : S_HDMV/PGS
    Codec ID/Info               : Picture based subtitle format used on BDs/HD-DVDs
    Duration                    : 1 h 42 min
    Bit rate                    : 35.6 kb/s
    Frame rate                  : 0.387 FPS
    Count of elements           : 2382
    Stream size                 : 26.1 MiB (0%)
    Language                    : Spanish
    Default                     : No
    Forced                      : No

    Menu
    00:00:00.000                : en:On an Adventure
    00:06:16.293                : en:Honeymoon in Paradise
    00:10:20.870                : en:Picking Up Strangers
    00:15:23.089                : en:Tricky Situation
    00:21:15.733                : en:Secret Falls
    00:24:38.977                : en:Tagalong
    00:32:16.101                : en:Suspicions Grow
    00:37:31.624                : en:Situational Awareness
    00:42:53.821                : en:Friend or Foe?
    00:47:56.415                : en:On Guard
    00:55:06.845                : en:Riding It Out
    00:59:09.671                : en:Wake-Up Call
    01:03:08.243                : en:Covert Plans
    01:07:09.817                : en:Going in Alive
    01:14:28.464                : en:Coming Together
    01:20:50.763                : en:Fight for Survival
    01:24:50.085                : en:SOS
    01:31:53.216                : en:Help Is on the Way
    01:38:45.878                : en:Man in Full
    01:43:28.536                : en:End Titles

     

  • Peso: 20.5 GiB

Sinopsis

Cliff y Cydney son una joven pareja aventurera que está pasando su luna de miel en una de las más maravillosas y remotas playas de Hawai. Creen haber encontrado el paraíso en sus tierras salvajes y senderos solitarios, hasta que se encuentran con un asustado grupo de excursionistas que hablan sobre el horrible asesinato de unos recién casados en las islas, y comienzan a preguntarse si quizás deberían volverse. Indecisos sobre qué hacer, Cliff y Cydney se unen a otras dos parejas, Nick y Gina y Kale y Cleo, y es cuando las cosas comienzan a ir terroríficamente de mal a peor. Lejos de la civilización o de poder ser rescatados, cada uno de ellos empieza a sentirse amenazado, sin saber ya en quién confiar. El paraíso se convierte en un infierno terrenal donde da comienzo una batalla brutal por la supervivencia.

Ficha técnica

Video trailer de la película

Enlaces de descarga

Rip de Bluray

Descargar A Perfect Getaway (2009) UNRATED REMUX 1080p Latino – CMHDD




Aportes de DPeliculasHDmega la pass es:dpeliculashdmega.org Aportes de CinemaniaHD la pass es:cinemaniahdd.com Aportes recientes:cinemaniahdd.net
Guardado en : Aventura , Misterio , Suspenso

Películas relacionadas

descargar A Perfect Getaway (2009) UNRATED REMUX 1080p Latino – CMHDD Full 1080p 1080p gratis, A Perfect Getaway (2009) UNRATED REMUX 1080p Latino – CMHDD Full 1080p mega 1 link, A Perfect Getaway (2009) UNRATED REMUX 1080p Latino – CMHDD Full 1080p pelicula completa, descargar A Perfect Getaway (2009) UNRATED REMUX 1080p Latino – CMHDD Full 1080p gratis en mega.

A Perfect Getaway (2009) UNRATED REMUX 1080p Latino – CMHDD pelicula full hd, A Perfect Getaway (2009) UNRATED REMUX 1080p Latino – CMHDD mega latino, A Perfect Getaway (2009) UNRATED REMUX 1080p Latino – CMHDD 4k latino, A Perfect Getaway (2009) UNRATED REMUX 1080p Latino – CMHDD pelicula completa, A Perfect Getaway (2009) UNRATED REMUX 1080p Latino – CMHDD descargar gratis, descargar A Perfect Getaway (2009) UNRATED REMUX 1080p Latino – CMHDD pelicula latino, A Perfect Getaway (2009) UNRATED REMUX 1080p Latino – CMHDD 1 link mega, A Perfect Getaway (2009) UNRATED REMUX 1080p Latino – CMHDD 1 link google drive, A Perfect Getaway (2009) UNRATED REMUX 1080p Latino – CMHDD hd 1080p latino.
Comentarios 0