A Perfect Fit (2021) NF WEB-DL 1080p Latino

58 vistas
1 estrella2 estrellas3 estrellas4 estrellas5 estrellas (2 votos, promedio: 5,00 de 5)
Cargando...

Información de A Perfect Fit (2021) NF WEB-DL 1080p Latino

Datos de la película

  • Calidad: 1080p
  • Audio: Español Latino AC3 5.1 WEB-DL - Ingles AC3 5.1 WEB-DL
  • Subtitulos: Español Latino SRT- FORZADOS SRT
  • Resolución: 1920x1080
  • Formato: MKV
  • Codec: H.264
  • Encoder: cinemaniahdd
  • Mediainfo: Clic para Mostrar Datos Ver
  • A Perfect Fit (2021) NF WEB-DL 1080p Latino [CNMNHDD].mkv
    Format                      : Matroska
    Format version              : Version 4
    File size                   : 3.37 GiB
    Duration                    : 1 h 52 min
    Overall bit rate mode       : Variable
    Overall bit rate            : 4 273 kb/s
    Movie name                  : A Perfect Fit (2021) - CinemaniaHDD.Net
    Encoded date                : UTC 2021-07-16 08:16:30
    Writing application         : mkvmerge v43.0.0 ('The Quartermaster') 64-bit
    Writing library             : libebml v1.3.10 + libmatroska v1.5.2

    Video
    ID                          : 1
    Format                      : AVC
    Format/Info                 : Advanced Video Codec
    Format profile              : Main@L4
    Format settings             : CABAC / 3 Ref Frames
    Format settings, CABAC      : Yes
    Format settings, Reference  : 3 frames
    Codec ID                    : V_MPEG4/ISO/AVC
    Duration                    : 1 h 52 min
    Bit rate mode               : Variable
    Bit rate                    : 3 503 kb/s
    Nominal bit rate            : 3 854 kb/s
    Maximum bit rate            : 7 305 kb/s
    Width                       : 1 920 pixels
    Height                      : 1 080 pixels
    Display aspect ratio        : 16:9
    Frame rate mode             : Constant
    Frame rate                  : 24.000 FPS
    Color space                 : YUV
    Chroma subsampling          : 4:2:0
    Bit depth                   : 8 bits
    Scan type                   : Progressive
    Bits/(Pixel*Frame)          : 0.070
    Stream size                 : 2.76 GiB (82%)
    Title                       : CinemaniaHDD
    Writing library             : x264 core 148 r2722 1b0121b
    Encoding settings           : cabac=1 / ref=3 / deblock=1:0:0 / analyse=0x1:0x111 / me=umh / subme=10 / psy=1 / psy_rd=1.00:0.00 / mixed_ref=1 / me_range=24 / chroma_me=1 / trellis=2 / 8x8dct=0 / cqm=0 / deadzone=21,11 / fast_pskip=1 / chroma_qp_offset=-2 / threads=8 / lookahead_threads=1 / sliced_threads=0 / nr=0 / decimate=1 / interlaced=0 / bluray_compat=0 / stitchable=1 / constrained_intra=0 / bframes=2 / b_pyramid=0 / b_adapt=2 / b_bias=0 / direct=3 / weightb=1 / open_gop=0 / weightp=2 / keyint=250 / keyint_min=24 / scenecut=0 / intra_refresh=0 / rc_lookahead=48 / rc=2pass / mbtree=1 / bitrate=3854 / ratetol=1.0 / qcomp=0.50 / qpmin=6 / qpmax=51 / qpstep=4 / cplxblur=20.0 / qblur=0.5 / vbv_maxrate=7305 / vbv_bufsize=9740 / nal_hrd=vbr / filler=0 / ip_ratio=1.40 / aq=1:1.00
    Default                     : Yes
    Forced                      : No

    Audio #1
    ID                          : 2
    Format                      : AC-3
    Format/Info                 : Audio Coding 3
    Commercial name             : Dolby Digital
    Codec ID                    : A_AC3
    Duration                    : 1 h 52 min
    Bit rate mode               : Constant
    Bit rate                    : 384 kb/s
    Channel(s)                  : 6 channels
    Channel layout              : L R C LFE Ls Rs
    Sampling rate               : 48.0 kHz
    Frame rate                  : 31.250 FPS (1536 SPF)
    Compression mode            : Lossy
    Stream size                 : 310 MiB (9%)
    Title                       : Español latino [CinemaniaHDD]
    Language                    : Spanish
    Service kind                : Complete Main
    Default                     : Yes
    Forced                      : No

    Audio #2
    ID                          : 3
    Format                      : AC-3
    Format/Info                 : Audio Coding 3
    Commercial name             : Dolby Digital
    Codec ID                    : A_AC3
    Duration                    : 1 h 52 min
    Bit rate mode               : Constant
    Bit rate                    : 384 kb/s
    Channel(s)                  : 6 channels
    Channel layout              : L R C LFE Ls Rs
    Sampling rate               : 48.0 kHz
    Frame rate                  : 31.250 FPS (1536 SPF)
    Compression mode            : Lossy
    Stream size                 : 310 MiB (9%)
    Title                       : Inglés [CinemaniaHDD]
    Language                    : English
    Service kind                : Complete Main
    Default                     : No
    Forced                      : No

    Text #1
    ID                          : 4
    Format                      : UTF-8
    Codec ID                    : S_TEXT/UTF8
    Codec ID/Info               : UTF-8 Plain Text
    Duration                    : 1 h 51 min
    Bit rate                    : 2 b/s
    Count of elements           : 62
    Stream size                 : 1.87 KiB (0%)
    Title                       : Forzados [CinemaniaHDD]
    Language                    : Spanish
    Default                     : Yes
    Forced                      : Yes

    Text #2
    ID                          : 5
    Format                      : UTF-8
    Codec ID                    : S_TEXT/UTF8
    Codec ID/Info               : UTF-8 Plain Text
    Duration                    : 1 h 51 min
    Bit rate                    : 42 b/s
    Count of elements           : 1120
    Stream size                 : 34.8 KiB (0%)
    Title                       : Español latino [CinemaniaHDD]
    Language                    : Spanish
    Default                     : No
    Forced                      : No

     

  • Peso: 3.37 GiB

Sinopsis

Una bloguera de moda de Bali conoce a un talentoso diseñador de calzados que es la horma de su zapato… ¡y su vida queda patas arriba!

Ficha técnica

Video trailer de la película

Enlaces de descarga

Rip de Bluray

Descargar A Perfect Fit (2021) NF WEB-DL 1080p Latino




Aportes de DPeliculasHDmega la pass es:dpeliculashdmega.org Aportes de CinemaniaHD la pass es:cinemaniahdd.com
Guardado en : Comedia , Drama , Netflix , Romance

Películas relacionadas

  • Pixie (2020) HBOMAX WEB-DL 1080p Latino

    Pixie (2020) HBOMAX WEB-DL 1080p Latino

    2020
    Pixie (2020) HBOMAX WEB-DL 1080p Latino

    5.0 1h 34m 2020

    Para vengar la muerte de su madre, Pixie planea un atraco, pero debe huir a través de Irlanda de los...

    Director: Stephen Darragh

    Género: Comedia

    Actores: Turlough Convery

  • Space Jam: Una Nueva Era (2021) HD 1080p Latino

    Space Jam: Una Nueva Era (2021) HD 1080p Latino

    2021
    Space Jam: Una Nueva Era (2021) HD 1080p Latino

    0.0 1h 55m 2021

    Descargar Space Jam: Una Nueva Era (2021) HD 1080p Latino. ecuela de la cinta original de 1996, Space...

    Director: Rhys Summerhayes

    Género: Animación

    Actores: Zendaya

  • Stargirl (2021) Temporada 2 WEB-DL 1080p Latino

    Stargirl (2021) Temporada 2 WEB-DL 1080p Latino

    2020
    Stargirl (2021) Temporada 2 WEB-DL 1080p Latino

    3.7 0h 43m 2020

    Courtney Withmore es una estudiante de instituto que ayuda a un grupo de jóvenes héroes a acabar con...

    Director: Geoff Johns

    Género: Action & Adventure

    Actores: Yvette Monreal

A Perfect Fit (2021) NF WEB-DL 1080p Latino pelicula full hd, A Perfect Fit (2021) NF WEB-DL 1080p Latino mega latino, A Perfect Fit (2021) NF WEB-DL 1080p Latino 4k latino, A Perfect Fit (2021) NF WEB-DL 1080p Latino pelicula completa, A Perfect Fit (2021) NF WEB-DL 1080p Latino descargar gratis, descargar A Perfect Fit (2021) NF WEB-DL 1080p Latino pelicula latino, A Perfect Fit (2021) NF WEB-DL 1080p Latino 1 link mega, A Perfect Fit (2021) NF WEB-DL 1080p Latino 1 link google drive, A Perfect Fit (2021) NF WEB-DL 1080p Latino hd 1080p latino.
Comentarios 0