×

¿Problemas para descargar con Mozilla, EDGE? Deshabilita la opción "Abrir vinculos en una pestaña nueva" tal como lo muestra ésta imagen.

A Nightmare on Elm Street 5 The Dream Child (1989) REMUX 1080p Latino

400 vistas

Información de A Nightmare on Elm Street 5 The Dream Child (1989) REMUX 1080p Latino

Datos de la película

  • Calidad: Full 1080p
  • Audio: Español Latino AC3 1.0 BLURAY - Ingles DTS 5.1 BLURAY
  • Subtitulos: Español Latino SRT
  • Resolución: 1920x1080p
  • Formato: MKV
  • Codec: H.264
  • Encoder: Dracarys
  • Mediainfo: Clic para Mostrar Datos Ver
  • Format                      : Matroska
    Format version              : Version 4
    File size                   : 14.3 GiB
    Duration                    : 1 h 29 min
    Overall bit rate mode       : Variable
    Overall bit rate            : 22.8 Mb/s
    Movie name                  : CinemaniaHDD.net
    Encoded date                : UTC 2020-05-05 03:32:38
    Writing application         : mkvmerge v38.0.0 ('The Silent Type') 64-bit
    Writing library             : libebml v1.3.9 + libmatroska v1.5.2

    Video
    ID                          : 1
    Format                      : AVC
    Format/Info                 : Advanced Video Codec
    Format profile              : High@L4.1
    Format settings             : CABAC / 2 Ref Frames
    Format settings, CABAC      : Yes
    Format settings, Reference  : 2 frames
    Format settings, GOP        : M=1, N=10
    Codec ID                    : V_MPEG4/ISO/AVC
    Duration                    : 1 h 29 min
    Bit rate mode               : Variable
    Bit rate                    : 20.0 Mb/s
    Width                       : 1 920 pixels
    Height                      : 1 080 pixels
    Display aspect ratio        : 16:9
    Frame rate mode             : Constant
    Frame rate                  : 23.976 (24000/1001) FPS
    Color space                 : YUV
    Chroma subsampling          : 4:2:0
    Bit depth                   : 8 bits
    Scan type                   : Progressive
    Bits/(Pixel*Frame)          : 0.402
    Stream size                 : 12.5 GiB (88%)
    Language                    : English
    Default                     : No
    Forced                      : No

    Audio #1
    ID                          : 2
    Format                      : AC-3
    Format/Info                 : Audio Coding 3
    Commercial name             : Dolby Digital
    Codec ID                    : A_AC3
    Duration                    : 1 h 29 min
    Bit rate mode               : Constant
    Bit rate                    : 192 kb/s
    Channel(s)                  : 1 channel
    Channel layout              : C
    Sampling rate               : 48.0 kHz
    Frame rate                  : 31.250 FPS (1536 SPF)
    Compression mode            : Lossy
    Stream size                 : 123 MiB (1%)
    Language                    : Spanish
    Service kind                : Complete Main
    Default                     : Yes
    Forced                      : No

    Audio #2
    ID                          : 3
    Format                      : DTS XLL
    Format/Info                 : Digital Theater Systems
    Commercial name             : DTS-HD Master Audio
    Codec ID                    : A_DTS
    Duration                    : 1 h 29 min
    Bit rate mode               : Variable
    Bit rate                    : 2 628 kb/s
    Channel(s)                  : 6 channels
    Channel layout              : C L R Ls Rs LFE
    Sampling rate               : 48.0 kHz
    Frame rate                  : 93.750 FPS (512 SPF)
    Bit depth                   : 24 bits
    Compression mode            : Lossless
    Stream size                 : 1.65 GiB (12%)
    Language                    : English
    Default                     : No
    Forced                      : No

    Text #1
    ID                          : 4
    Format                      : UTF-8
    Codec ID                    : S_TEXT/UTF8
    Codec ID/Info               : UTF-8 Plain Text
    Duration                    : 1 h 28 min
    Bit rate                    : 35 b/s
    Count of elements           : 779
    Stream size                 : 23.3 KiB (0%)
    Language                    : Spanish
    Default                     : No
    Forced                      : No

    Text #2
    ID                          : 5
    Format                      : PGS
    Muxing mode                 : zlib
    Codec ID                    : S_HDMV/PGS
    Codec ID/Info               : Picture based subtitle format used on BDs/HD-DVDs
    Duration                    : 1 h 28 min
    Bit rate                    : 20.6 kb/s
    Count of elements           : 1558
    Stream size                 : 13.1 MiB (0%)
    Language                    : Spanish
    Default                     : No
    Forced                      : No

    Menu
    00:00:00.000                : en:Opening Titles/Dream Lover
    00:03:24.037                : en:The Nun's Nightmare
    00:08:21.835                : en:Commencement
    00:12:50.812                : en:Follow Your Dreams
    00:16:34.118                : en:"Don't Panic Amanda"
    00:22:57.668                : en:Talk Radio
    00:27:37.239                : en:"Fuel Injection"
    00:30:17.899                : en:Jacob Makes Three
    00:35:19.534                : en:History Lesson
    00:38:21.591                : en:"Second Helping"
    00:41:58.433                : en:Mark's World
    00:44:50.771                : en:Alice's Boy
    00:49:40.853                : en:"Do Unborn Babies Dream?"
    00:53:36.713                : en:"I Want to Keep Him"
    00:58:30.966                : en:"Where's Amanda?"
    01:00:41.721                : en:Yvonne Takes a Plunge
    01:04:53.765                : en:"Faster Than a Bastard Maniac"
    01:09:32.168                : en:"How Do We Stop Him?"
    01:12:02.818                : en:Maniacs Attack
    01:15:42.955                : en:The Evil Within Us All
    01:19:08.619                : en:"School's Out Krueger"
    01:23:22.414                : en:"Sweet Dreams Jacob Daniel"
    01:24:20.305                : en:End Credits

  • Peso: 14.3 GiB

Sinopsis

Alice y Dan viven felices tras haber acabado con Freddy. Las pesadillas han terminado y Alice espera plácidamente que nazca su bebé. Ssin embargo, Freddy planea apoderarse del alma del hijo que espera Alice.

Ficha técnica

  • Titulo original: A Nightmare on Elm Street: The Dream Child
  • Fecha de lanzamiento: 11-08-1989 (United States of America)
  • Director: Stephen Hopkins
  • Género: Remux, Suspenso, Terror

Video trailer de la película

Enlaces de descarga

Rip de Bluray

Descargar A Nightmare on Elm Street 5 The Dream Child (1989) REMUX 1080p Latino




Aportes de DPeliculasHDmega la pass es:dpeliculashdmega.org Aportes de CinemaniaHD la pass es:cinemaniahdd.com
Guardado en : Remux , Suspenso , Terror

Películas relacionadas

  • Tren Bala (2022) WEB-DL 4K UHD HDR Latino

    Tren Bala (2022) WEB-DL 4K UHD HDR Latino

    2022
    Tren Bala (2022) WEB-DL 4K UHD HDR Latino

    2h 7m 2022

    Descargar Tren Bala (2022) WEB-DL 4K UHD HDR Latino. El desafortunado asesino "Catarina" está decidido...

    Director: Paul Barry

    Género: 4K HDR

    Actores: Zooey Miyoshi

  • Tren Bala (2022) AMZN WEB-DL 1080p Latino

    Tren Bala (2022) AMZN WEB-DL 1080p Latino

    2022
    Tren Bala (2022) AMZN WEB-DL 1080p Latino

    2h 7m 2022

    Descargar Tren Bala (2022) AMZN WEB-DL 1080p Latino. Cinco asesinos a sueldo se encuentran a bordo de...

    Director: Paul Barry

    Género: Acción

    Actores: Zooey Miyoshi

  • Poltergeist (1982) REMUX 1080p Latino – CMHDD

    Poltergeist (1982) REMUX 1080p Latino – CMHDD

    1982
    Poltergeist (1982) REMUX 1080p Latino – CMHDD

    1h 54m 1982

    Una familia americana de clase media se traslada a vivir e una nueva casa en un aparentemente idílico...

    Director: Tobe Hooper

    Género: Terror

    Actores: Zelda Rubinstein

  • Poltergeist (1982) REMUX 4K Latino – CMHDD

    Poltergeist (1982) REMUX 4K Latino – CMHDD

    1982
    Poltergeist (1982) REMUX 4K Latino – CMHDD

    1h 54m 1982

    Una familia americana de clase media se traslada a vivir e una nueva casa en un aparentemente idílico...

    Director: Tobe Hooper

    Género: Terror

    Actores: Zelda Rubinstein

  • Athena (2022) NF WEB-DL 1080p Latino

    Athena (2022) NF WEB-DL 1080p Latino

    2022
    Athena (2022) NF WEB-DL 1080p Latino

    1h 37m 2022

    Descargar Athena (2022) NF WEB-DL 1080p Latino. Horas después de la trágica muerte de su hermano menor...

    Director: Romain Gavras

    Género: Acción

    Actores: Tarek Haddaji

descargar A Nightmare on Elm Street 5 The Dream Child (1989) REMUX 1080p Latino Full 1080p 1080p gratis, A Nightmare on Elm Street 5 The Dream Child (1989) REMUX 1080p Latino Full 1080p mega 1 link, A Nightmare on Elm Street 5 The Dream Child (1989) REMUX 1080p Latino Full 1080p pelicula completa, descargar A Nightmare on Elm Street 5 The Dream Child (1989) REMUX 1080p Latino Full 1080p gratis en mega.

A Nightmare on Elm Street 5 The Dream Child (1989) REMUX 1080p Latino pelicula full hd, A Nightmare on Elm Street 5 The Dream Child (1989) REMUX 1080p Latino mega latino, A Nightmare on Elm Street 5 The Dream Child (1989) REMUX 1080p Latino 4k latino, A Nightmare on Elm Street 5 The Dream Child (1989) REMUX 1080p Latino pelicula completa, A Nightmare on Elm Street 5 The Dream Child (1989) REMUX 1080p Latino descargar gratis, descargar A Nightmare on Elm Street 5 The Dream Child (1989) REMUX 1080p Latino pelicula latino, A Nightmare on Elm Street 5 The Dream Child (1989) REMUX 1080p Latino 1 link mega, A Nightmare on Elm Street 5 The Dream Child (1989) REMUX 1080p Latino 1 link google drive, A Nightmare on Elm Street 5 The Dream Child (1989) REMUX 1080p Latino hd 1080p latino.
Comentarios 0