×

¿Problemas para descargar con Mozilla, EDGE? Deshabilita la opción "Abrir vinculos en una pestaña nueva" tal como lo muestra ésta imagen.

A Nightmare on Elm Street 4 The Dream Master (1988) REMUX 1080p Latino

342 vistas

Información de A Nightmare on Elm Street 4 The Dream Master (1988) REMUX 1080p Latino

Datos de la película

  • Calidad: Full 1080p
  • Audio: Español Latino AC3 1.0 BLURAY - Ingles DTS 5.1 BLURAY
  • Subtitulos: Español Latino SRT- FORZADOS SRT
  • Resolución: 1920x1080p
  • Formato: MKV
  • Codec: H.264
  • Encoder: Dracarys
  • Mediainfo: Clic para Mostrar Datos Ver
  • Format                      : Matroska
    Format version              : Version 4
    File size                   : 16.0 GiB
    Duration                    : 1 h 33 min
    Overall bit rate mode       : Variable
    Overall bit rate            : 24.6 Mb/s
    Movie name                  : CinemaniaHDD.net
    Encoded date                : UTC 2020-05-05 03:16:23
    Writing application         : mkvmerge v38.0.0 ('The Silent Type') 64-bit
    Writing library             : libebml v1.3.9 + libmatroska v1.5.2

    Video
    ID                          : 1
    Format                      : AVC
    Format/Info                 : Advanced Video Codec
    Format profile              : High@L4.1
    Format settings             : CABAC / 2 Ref Frames
    Format settings, CABAC      : Yes
    Format settings, Reference  : 2 frames
    Format settings, GOP        : M=1, N=10
    Codec ID                    : V_MPEG4/ISO/AVC
    Duration                    : 1 h 33 min
    Bit rate mode               : Variable
    Bit rate                    : 20.0 Mb/s
    Width                       : 1 920 pixels
    Height                      : 1 080 pixels
    Display aspect ratio        : 16:9
    Frame rate mode             : Constant
    Frame rate                  : 23.976 (24000/1001) FPS
    Color space                 : YUV
    Chroma subsampling          : 4:2:0
    Bit depth                   : 8 bits
    Scan type                   : Progressive
    Bits/(Pixel*Frame)          : 0.402
    Stream size                 : 13.0 GiB (81%)
    Language                    : English
    Default                     : No
    Forced                      : No

    Audio #1
    ID                          : 2
    Format                      : AC-3
    Format/Info                 : Audio Coding 3
    Commercial name             : Dolby Digital
    Codec ID                    : A_AC3
    Duration                    : 1 h 33 min
    Bit rate mode               : Constant
    Bit rate                    : 192 kb/s
    Channel(s)                  : 1 channel
    Channel layout              : C
    Sampling rate               : 48.0 kHz
    Frame rate                  : 31.250 FPS (1536 SPF)
    Compression mode            : Lossy
    Stream size                 : 128 MiB (1%)
    Language                    : Spanish
    Service kind                : Complete Main
    Default                     : Yes
    Forced                      : No

    Audio #2
    ID                          : 3
    Format                      : DTS XLL
    Format/Info                 : Digital Theater Systems
    Commercial name             : DTS-HD Master Audio
    Codec ID                    : A_DTS
    Duration                    : 1 h 33 min
    Bit rate mode               : Variable
    Bit rate                    : 4 384 kb/s
    Channel(s)                  : 6 channels
    Channel layout              : C L R Ls Rs LFE
    Sampling rate               : 48.0 kHz
    Frame rate                  : 93.750 FPS (512 SPF)
    Bit depth                   : 24 bits
    Compression mode            : Lossless
    Stream size                 : 2.86 GiB (18%)
    Language                    : English
    Default                     : No
    Forced                      : No

    Text #1
    ID                          : 4
    Format                      : PGS
    Muxing mode                 : zlib
    Codec ID                    : S_HDMV/PGS
    Codec ID/Info               : Picture based subtitle format used on BDs/HD-DVDs
    Duration                    : 1 h 32 min
    Bit rate                    : 17.6 kb/s
    Count of elements           : 1317
    Stream size                 : 11.7 MiB (0%)
    Language                    : Spanish
    Default                     : No
    Forced                      : No

    Text #2
    ID                          : 5
    Format                      : UTF-8
    Codec ID                    : S_TEXT/UTF8
    Codec ID/Info               : UTF-8 Plain Text
    Duration                    : 1 h 32 min
    Bit rate                    : 31 b/s
    Count of elements           : 658
    Stream size                 : 21.3 KiB (0%)
    Language                    : Spanish
    Default                     : No
    Forced                      : No

    Menu
    00:00:00.000                : en:Opening Titles/Freddy's Not Home
    00:04:57.297                : en:Not Again
    00:07:20.732                : en:Avoid All Contact Day
    00:12:11.189                : en:Daydreamer
    00:15:29.387                : en:"This Ain't My Dreamland"
    00:20:33.816                : en:Joey's Last Stand
    00:23:06.010                : en:"Swish, Killed a Fish"
    00:25:09.174                : en:The Nurse's Office
    00:28:01.013                : en:Diner News
    00:30:48.764                : en:"Why the Haunted House?"
    00:32:55.599                : en:Dream Cuisine
    00:35:07.439                : en:"Reach Out and Touch Someone"
    00:39:39.919                : en:"I Don't Smoke"
    00:43:26.103                : en:Learning Is Fun
    00:46:58.607                : en:In the Flesh
    00:53:03.347                : en:Mortal Combat
    00:55:31.286                : en:"Mind Over Matter"
    00:58:28.922                : en:Survivors Prepare
    01:02:06.514                : en:Dream Date
    01:05:02.982                : en:A Slice of Life
    01:07:36.177                : en:Repeat Perforrmances
    01:11:54.143                : en:Lights Out
    01:14:30.466                : en:Combat Ready
    01:19:13.248                : en:"I Am Eternal"
    01:22:28.360                : en:"Rest in Hell"
    01:25:53.148                : en:Make a Wish
    01:27:00.799                : en:End Credits

  • Peso: 16.0 GiB

Sinopsis

Freddy Krueger vuelve a la vida después de su aparente muerte en la entrega anterior y comienza a matar a los chicos que viven en Elm Street. Pero, Kristen, capaz de atraer a los demás dentro de sus sueños, le concede este poder especial a su amiga Alice. Sin embargo, ésta se da cuenta de que Freddy está sacando partido a este extraño poder.

Ficha técnica

  • Titulo original: A Nightmare on Elm Street 4: The Dream Master
  • Fecha de lanzamiento: 19-08-1988 (United States of America)
  • Director: Renny Harlin
  • Género: Remux, Suspenso, Terror

Video trailer de la película

Enlaces de descarga

Rip de Bluray

Descargar A Nightmare on Elm Street 4 The Dream Master (1988) REMUX 1080p Latino




Aportes de DPeliculasHDmega la pass es:dpeliculashdmega.org Aportes de CinemaniaHD la pass es:cinemaniahdd.com
Guardado en : Remux , Suspenso , Terror

Películas relacionadas

descargar A Nightmare on Elm Street 4 The Dream Master (1988) REMUX 1080p Latino Full 1080p 1080p gratis, A Nightmare on Elm Street 4 The Dream Master (1988) REMUX 1080p Latino Full 1080p mega 1 link, A Nightmare on Elm Street 4 The Dream Master (1988) REMUX 1080p Latino Full 1080p pelicula completa, descargar A Nightmare on Elm Street 4 The Dream Master (1988) REMUX 1080p Latino Full 1080p gratis en mega.

A Nightmare on Elm Street 4 The Dream Master (1988) REMUX 1080p Latino pelicula full hd, A Nightmare on Elm Street 4 The Dream Master (1988) REMUX 1080p Latino mega latino, A Nightmare on Elm Street 4 The Dream Master (1988) REMUX 1080p Latino 4k latino, A Nightmare on Elm Street 4 The Dream Master (1988) REMUX 1080p Latino pelicula completa, A Nightmare on Elm Street 4 The Dream Master (1988) REMUX 1080p Latino descargar gratis, descargar A Nightmare on Elm Street 4 The Dream Master (1988) REMUX 1080p Latino pelicula latino, A Nightmare on Elm Street 4 The Dream Master (1988) REMUX 1080p Latino 1 link mega, A Nightmare on Elm Street 4 The Dream Master (1988) REMUX 1080p Latino 1 link google drive, A Nightmare on Elm Street 4 The Dream Master (1988) REMUX 1080p Latino hd 1080p latino.
Comentarios 0