×

¿Problemas para descargar con Mozilla, EDGE? Deshabilita la opción "Abrir vinculos en una pestaña nueva" tal como lo muestra ésta imagen.

A Nightmare on Elm Street 3 Dream Warriors (1987) REMUX 1080p Latino

356 vistas

Información de A Nightmare on Elm Street 3 Dream Warriors (1987) REMUX 1080p Latino

Datos de la película

  • Calidad: Full 1080p
  • Audio: Español Latino AC3 1.0 BLURAY - Ingles DTS 5.1 BLURAY
  • Subtitulos: Español Latino SRT
  • Resolución: 1920x1080p
  • Formato: MKV
  • Codec: H.264
  • Encoder: Dracarys
  • Mediainfo: Clic para Mostrar Datos Ver
  • Format                      : Matroska
    Format version              : Version 4
    File size                   : 16.3 GiB
    Duration                    : 1 h 36 min
    Overall bit rate mode       : Variable
    Overall bit rate            : 24.1 Mb/s
    Movie name                  : CinemaniaHDD.net
    Encoded date                : UTC 2020-05-05 02:58:30
    Writing application         : mkvmerge v38.0.0 ('The Silent Type') 64-bit
    Writing library             : libebml v1.3.9 + libmatroska v1.5.2

    Video
    ID                          : 1
    Format                      : AVC
    Format/Info                 : Advanced Video Codec
    Format profile              : High@L4.1
    Format settings             : CABAC / 2 Ref Frames
    Format settings, CABAC      : Yes
    Format settings, Reference  : 2 frames
    Format settings, GOP        : M=1, N=10
    Codec ID                    : V_MPEG4/ISO/AVC
    Duration                    : 1 h 36 min
    Bit rate mode               : Variable
    Bit rate                    : 19.9 Mb/s
    Width                       : 1 920 pixels
    Height                      : 1 080 pixels
    Display aspect ratio        : 16:9
    Frame rate mode             : Constant
    Frame rate                  : 23.976 (24000/1001) FPS
    Color space                 : YUV
    Chroma subsampling          : 4:2:0
    Bit depth                   : 8 bits
    Scan type                   : Progressive
    Bits/(Pixel*Frame)          : 0.401
    Stream size                 : 13.4 GiB (83%)
    Language                    : English
    Default                     : No
    Forced                      : No

    Audio #1
    ID                          : 2
    Format                      : AC-3
    Format/Info                 : Audio Coding 3
    Commercial name             : Dolby Digital
    Codec ID                    : A_AC3
    Duration                    : 1 h 36 min
    Bit rate mode               : Constant
    Bit rate                    : 192 kb/s
    Channel(s)                  : 1 channel
    Channel layout              : C
    Sampling rate               : 48.0 kHz
    Frame rate                  : 31.250 FPS (1536 SPF)
    Compression mode            : Lossy
    Stream size                 : 133 MiB (1%)
    Language                    : Spanish
    Service kind                : Complete Main
    Default                     : Yes
    Forced                      : No

    Audio #2
    ID                          : 3
    Format                      : DTS XLL
    Format/Info                 : Digital Theater Systems
    Commercial name             : DTS-HD Master Audio
    Codec ID                    : A_DTS
    Duration                    : 1 h 36 min
    Bit rate mode               : Variable
    Bit rate                    : 3 997 kb/s
    Channel(s)                  : 6 channels
    Channel layout              : C L R Ls Rs LFE
    Sampling rate               : 48.0 kHz
    Frame rate                  : 93.750 FPS (512 SPF)
    Bit depth                   : 24 bits
    Compression mode            : Lossless
    Stream size                 : 2.70 GiB (17%)
    Language                    : English
    Default                     : No
    Forced                      : No

    Text #1
    ID                          : 4
    Format                      : UTF-8
    Codec ID                    : S_TEXT/UTF8
    Codec ID/Info               : UTF-8 Plain Text
    Duration                    : 1 h 36 min
    Bit rate                    : 47 b/s
    Count of elements           : 993
    Stream size                 : 33.8 KiB (0%)
    Language                    : Spanish
    Default                     : No
    Forced                      : No

    Text #2
    ID                          : 5
    Format                      : PGS
    Muxing mode                 : zlib
    Codec ID                    : S_HDMV/PGS
    Codec ID/Info               : Picture based subtitle format used on BDs/HD-DVDs
    Duration                    : 1 h 36 min
    Bit rate                    : 27.4 kb/s
    Count of elements           : 1986
    Stream size                 : 18.8 MiB (0%)
    Language                    : Spanish
    Default                     : No
    Forced                      : No

    Menu
    00:00:00.000                : en:Opening Titles/Model Home
    00:03:21.868                : en:"Get to Sleep"
    00:04:12.127                : en:"This Is Where He Takes Us"
    00:08:31.094                : en:Suicide
    00:09:31.613                : en:Springwood's Troubled Teens
    00:14:37.502                : en:Making the Rounds
    00:18:49.879                : en:Sucked In
    00:22:50.744                : en:Pull Someone Into Your Dream
    00:25:53.927                : en:Conquering the Dream
    00:29:25.430                : en:Phillip Takes a Walk
    00:32:41.710                : en:"It Was Murder"
    00:35:38.803                : en:Staying Awake
    00:38:42.570                : en:"Your Big Break in Tv"
    00:40:16.623                : en:An Unquiet Spirit
    00:42:05.523                : en:Trusting Nancy
    00:47:44.445                : en:Joey Wets His Whistle
    00:50:46.043                : en:Freddy's Turn
    00:54:43.280                : en:"the Bastard Song of 100 Maniacs"
    00:59:10.922                : en:"Come and Get Him Bitch"
    01:02:54.354                : en:The Race Is On
    01:06:19.392                : en:Going On
    01:10:41.487                : en:"You Should Listen to Your Mother"
    01:12:51.492                : en:"Let's Get High"
    01:14:56.909                : en:"Sorry Kid I Don't Believe in Fairy Tales"
    01:16:50.981                : en:The Door
    01:18:58.734                : en:The Remains of the Day
    01:21:10.866                : en:"Your Wish Is My Command"
    01:24:17.135                : en:Sticks and Stones
    01:26:37.401                : en:"Die"
    01:30:57.327                : en:"You Were His Mother"
    01:32:32.297                : en:End Credits

  • Peso: 16.3 GiB

Sinopsis

Años después de los incidentes, Nancy se ha convertido en una psiquiatra especializado en terapia del sueño, pero Freddy también sigue en activo, y comienza a parecerse en los sueños de varios de los pacientes. Nancy los reúne a todos en busca de una forma de parar al monstruo.

Ficha técnica

Video trailer de la película

Enlaces de descarga

Rip de Bluray

Descargar A Nightmare on Elm Street 3 Dream Warriors (1987) REMUX 1080p Latino




Aportes de DPeliculasHDmega la pass es:dpeliculashdmega.org Aportes de CinemaniaHD la pass es:cinemaniahdd.com
Guardado en : Remux , Suspenso , Terror

Películas relacionadas

  • Un mundo extraño (2022) REMUX 1080p Latino

    Un mundo extraño (2022) REMUX 1080p Latino

    2022
    Un mundo extraño (2022) REMUX 1080p Latino

    1h 42m 2022

    Descargar Un mundo extraño (2022) REMUX 1080p. Un viaje a una tierra inexplorada y traicionera en la...

    Director: Thai Bettistea

    Género: Animación

    Actores: Reed Buck

  • Lobo Vikingo (2022) NF WEB-DL 1080p Latino

    Lobo Vikingo (2022) NF WEB-DL 1080p Latino

    2022
    Lobo Vikingo (2022) NF WEB-DL 1080p Latino

    1h 38m 2022

    Descargar Lobo Vikingo (2022) NF WEB-DL 1080p Latino. Thale (17) acaba de mudarse con sus padres a un...

    Director: Stig Svendsen

    Género: Netflix

    Actores: Vidar Magnussen

  • Infiesto (2023) NF WEB-DL 1080p Castellano

    Infiesto (2023) NF WEB-DL 1080p Castellano

    2023
    Infiesto (2023) NF WEB-DL 1080p Castellano

    1h 36m 2023

    Descargar Infiesto (2023) NF WEB-DL 1080p Castellano. Mientras el coronavirus trastoca sus vidas, dos...

    Director: Patxi Amezcua

    Género: Crimen

    Actores: Luis Zahera

descargar A Nightmare on Elm Street 3 Dream Warriors (1987) REMUX 1080p Latino Full 1080p 1080p gratis, A Nightmare on Elm Street 3 Dream Warriors (1987) REMUX 1080p Latino Full 1080p mega 1 link, A Nightmare on Elm Street 3 Dream Warriors (1987) REMUX 1080p Latino Full 1080p pelicula completa, descargar A Nightmare on Elm Street 3 Dream Warriors (1987) REMUX 1080p Latino Full 1080p gratis en mega.

A Nightmare on Elm Street 3 Dream Warriors (1987) REMUX 1080p Latino pelicula full hd, A Nightmare on Elm Street 3 Dream Warriors (1987) REMUX 1080p Latino mega latino, A Nightmare on Elm Street 3 Dream Warriors (1987) REMUX 1080p Latino 4k latino, A Nightmare on Elm Street 3 Dream Warriors (1987) REMUX 1080p Latino pelicula completa, A Nightmare on Elm Street 3 Dream Warriors (1987) REMUX 1080p Latino descargar gratis, descargar A Nightmare on Elm Street 3 Dream Warriors (1987) REMUX 1080p Latino pelicula latino, A Nightmare on Elm Street 3 Dream Warriors (1987) REMUX 1080p Latino 1 link mega, A Nightmare on Elm Street 3 Dream Warriors (1987) REMUX 1080p Latino 1 link google drive, A Nightmare on Elm Street 3 Dream Warriors (1987) REMUX 1080p Latino hd 1080p latino.
Comentarios 0