×

¿Problemas para descargar con Mozilla, EDGE? Deshabilita la opción "Abrir vinculos en una pestaña nueva" tal como lo muestra ésta imagen.

A Nightmare on Elm Street 2 Freddy’s Revenge (1985) REMUX 1080p Latino

341 vistas

Información de A Nightmare on Elm Street 2 Freddy’s Revenge (1985) REMUX 1080p Latino

Datos de la película

  • Calidad: Full 1080p
  • Audio: Español Latino AC3 1.0 BLURAY - Ingles DTS 5.1 BLURAY
  • Subtitulos: Español Latino SRT
  • Resolución: 1920x1080p
  • Formato: MKV
  • Codec: H.264
  • Encoder: Dracarys
  • Mediainfo: Clic para Mostrar Datos Ver
  • Format                      : Matroska
    Format version              : Version 4
    File size                   : 14.5 GiB
    Duration                    : 1 h 25 min
    Overall bit rate mode       : Variable
    Overall bit rate            : 24.2 Mb/s
    Movie name                  : CinemaniaHDD.net
    Encoded date                : UTC 2020-05-05 00:02:50
    Writing application         : mkvmerge v38.0.0 ('The Silent Type') 64-bit
    Writing library             : libebml v1.3.9 + libmatroska v1.5.2

    Video
    ID                          : 1
    Format                      : AVC
    Format/Info                 : Advanced Video Codec
    Format profile              : High@L4.1
    Format settings             : CABAC / 2 Ref Frames
    Format settings, CABAC      : Yes
    Format settings, Reference  : 2 frames
    Format settings, GOP        : M=1, N=10
    Codec ID                    : V_MPEG4/ISO/AVC
    Duration                    : 1 h 25 min
    Bit rate mode               : Variable
    Bit rate                    : 19.9 Mb/s
    Width                       : 1 920 pixels
    Height                      : 1 080 pixels
    Display aspect ratio        : 16:9
    Frame rate mode             : Constant
    Frame rate                  : 23.976 (24000/1001) FPS
    Color space                 : YUV
    Chroma subsampling          : 4:2:0
    Bit depth                   : 8 bits
    Scan type                   : Progressive
    Bits/(Pixel*Frame)          : 0.401
    Stream size                 : 11.9 GiB (82%)
    Language                    : English
    Default                     : No
    Forced                      : No

    Audio #1
    ID                          : 2
    Format                      : AC-3
    Format/Info                 : Audio Coding 3
    Commercial name             : Dolby Digital
    Codec ID                    : A_AC3
    Duration                    : 1 h 25 min
    Bit rate mode               : Constant
    Bit rate                    : 192 kb/s
    Channel(s)                  : 1 channel
    Channel layout              : C
    Sampling rate               : 48.0 kHz
    Frame rate                  : 31.250 FPS (1536 SPF)
    Compression mode            : Lossy
    Stream size                 : 118 MiB (1%)
    Language                    : Spanish
    Service kind                : Complete Main
    Default                     : No
    Forced                      : No

    Audio #2
    ID                          : 3
    Format                      : DTS XLL
    Format/Info                 : Digital Theater Systems
    Commercial name             : DTS-HD Master Audio
    Codec ID                    : A_DTS
    Duration                    : 1 h 25 min
    Bit rate mode               : Variable
    Bit rate                    : 4 071 kb/s
    Channel(s)                  : 6 channels
    Channel layout              : C L R Ls Rs LFE
    Sampling rate               : 48.0 kHz
    Frame rate                  : 93.750 FPS (512 SPF)
    Bit depth                   : 24 bits
    Compression mode            : Lossless
    Stream size                 : 2.43 GiB (17%)
    Language                    : English
    Default                     : Yes
    Forced                      : No

    Text #1
    ID                          : 4
    Format                      : UTF-8
    Codec ID                    : S_TEXT/UTF8
    Codec ID/Info               : UTF-8 Plain Text
    Duration                    : 1 h 24 min
    Bit rate                    : 29 b/s
    Count of elements           : 705
    Stream size                 : 18.3 KiB (0%)
    Language                    : Spanish
    Default                     : No
    Forced                      : No

    Text #2
    ID                          : 5
    Format                      : PGS
    Muxing mode                 : zlib
    Codec ID                    : S_HDMV/PGS
    Codec ID/Info               : Picture based subtitle format used on BDs/HD-DVDs
    Duration                    : 1 h 24 min
    Bit rate                    : 16.9 kb/s
    Count of elements           : 1410
    Stream size                 : 10.3 MiB (0%)
    Language                    : Spanish
    Default                     : No
    Forced                      : No

    Menu
    00:00:00.000                : en:Opening / School Bus Mayhem
    00:06:42.775                : en:"Morning Honey"
    00:08:30.259                : en:Playing Hard Ball
    00:12:03.932                : en:"You've Got the Body, I've Got the Brain"
    00:16:01.836                : en:Biology Lessons
    00:18:02.414                : en:Surprise, Surprise
    00:23:02.673                : en:"Try It on for Size"
    00:26:25.750                : en:School Time
    00:27:58.259                : en:Bird Rabies
    00:30:40.505                : en:Leather Bar
    00:33:11.489                : en:On the Ropes
    00:37:27.454                : en:The Parents' Concern
    00:40:01.440                : en:From Dusk 'till Dawn
    00:42:59.619                : en:Fred Krueger Worked Here
    00:46:07.389                : en:A Bad Night
    00:49:09.572                : en:French Kiss
    00:54:03.532                : en:"I'm Scared Grady"
    00:57:33.449                : en:"It's Starting to Happen Again"
    01:01:30.519                : en:Confession
    01:04:21.733                : en:"I Love You Lisa"
    01:08:07.666                : en:"You Are All My Children Now"
    01:11:15.604                : en:Hades Maze
    01:14:57.576                : en:Beauty and the Beast
    01:17:30.145                : en:Resurrection
    01:20:32.411                : en:Back on the Bus
    01:22:49.965                : en:End Credits

  • Peso: 14.5 GiB

Sinopsis

Una nueva familia se ha trasladado a Elm Street, a una casa que llevaba un buen tiempo deshabitada. Pasado poco tiempo allí, los jóvenes comienzan a tener extrañas pesadillas, tal y como ocurriese años atrás. Uno de ellos consigue darse cuenta de que Freddy intenta poseerle desde el mundo de los sueños, para pasar su obra al mundo real. Aunque intenta resistirse, no puede evitar que el asesino le obligue a realizar terribles acciones. Sólo la novia del joven puede hacer algo por salvar a su compañero, y acabar con Krueger.

Ficha técnica

  • Titulo original: A Nightmare on Elm Street Part 2: Freddy's Revenge
  • Fecha de lanzamiento: 31-10-1985 (United States of America)
  • Director: Jack Sholder
  • Género: Remux, Terror

Video trailer de la película

Enlaces de descarga

Rip de Bluray

Descargar A Nightmare on Elm Street 2 Freddy’s Revenge (1985) REMUX 1080p Latino




Aportes de DPeliculasHDmega la pass es:dpeliculashdmega.org Aportes de CinemaniaHD la pass es:cinemaniahdd.com
Guardado en : Remux , Terror

Películas relacionadas

descargar A Nightmare on Elm Street 2 Freddy’s Revenge (1985) REMUX 1080p Latino Full 1080p 1080p gratis, A Nightmare on Elm Street 2 Freddy’s Revenge (1985) REMUX 1080p Latino Full 1080p mega 1 link, A Nightmare on Elm Street 2 Freddy’s Revenge (1985) REMUX 1080p Latino Full 1080p pelicula completa, descargar A Nightmare on Elm Street 2 Freddy’s Revenge (1985) REMUX 1080p Latino Full 1080p gratis en mega.

A Nightmare on Elm Street 2 Freddy’s Revenge (1985) REMUX 1080p Latino pelicula full hd, A Nightmare on Elm Street 2 Freddy’s Revenge (1985) REMUX 1080p Latino mega latino, A Nightmare on Elm Street 2 Freddy’s Revenge (1985) REMUX 1080p Latino 4k latino, A Nightmare on Elm Street 2 Freddy’s Revenge (1985) REMUX 1080p Latino pelicula completa, A Nightmare on Elm Street 2 Freddy’s Revenge (1985) REMUX 1080p Latino descargar gratis, descargar A Nightmare on Elm Street 2 Freddy’s Revenge (1985) REMUX 1080p Latino pelicula latino, A Nightmare on Elm Street 2 Freddy’s Revenge (1985) REMUX 1080p Latino 1 link mega, A Nightmare on Elm Street 2 Freddy’s Revenge (1985) REMUX 1080p Latino 1 link google drive, A Nightmare on Elm Street 2 Freddy’s Revenge (1985) REMUX 1080p Latino hd 1080p latino.
Comentarios 0