×

¿Problemas para descargar con Mozilla, EDGE? Deshabilita la opción "Abrir vinculos en una pestaña nueva" tal como lo muestra ésta imagen.

A Nightmare on Elm Street (1984) REMUX 1080p Latino

502 vistas

Información de A Nightmare on Elm Street (1984) REMUX 1080p Latino

Datos de la película

  • Calidad: Full 1080p
  • Audio: Español Latino AC3 2.0 BLURAY - Ingles DTS 5.1 BLURAY
  • Subtitulos: Español Latino SRT
  • Resolución: 1920x1080p
  • Formato: MKV
  • Codec: H.264
  • Encoder: Dracarys
  • Mediainfo: Clic para Mostrar Datos Ver
  • Format                      : Matroska
    Format version              : Version 4
    File size                   : 21.1 GiB
    Duration                    : 1 h 31 min
    Overall bit rate mode       : Variable
    Overall bit rate            : 33.1 Mb/s
    Movie name                  : CinemaniaHDD.net
    Encoded date                : UTC 2020-05-03 03:06:14
    Writing application         : mkvmerge v38.0.0 ('The Silent Type') 64-bit
    Writing library             : libebml v1.3.9 + libmatroska v1.5.2

    Video
    ID                          : 1
    Format                      : VC-1
    Format profile              : Advanced@L3
    Codec ID                    : V_MS/VFW/FOURCC / WVC1
    Codec ID/Hint               : Microsoft
    Duration                    : 1 h 31 min
    Bit rate                    : 27.6 Mb/s
    Width                       : 1 920 pixels
    Height                      : 1 080 pixels
    Display aspect ratio        : 16:9
    Frame rate mode             : Constant
    Frame rate                  : 23.976 (24000/1001) FPS
    Color space                 : YUV
    Chroma subsampling          : 4:2:0
    Bit depth                   : 8 bits
    Scan type                   : Progressive
    Compression mode            : Lossy
    Bits/(Pixel*Frame)          : 0.555
    Stream size                 : 17.6 GiB (83%)
    Title                       : FraMeSToR / VC-1 / 27585 kbps / 1080p / 23.976 fps / 16:9 / Advanced@L3
    Language                    : English
    Default                     : No
    Forced                      : No

    Audio #1
    ID                          : 2
    Format                      : AC-3
    Format/Info                 : Audio Coding 3
    Commercial name             : Dolby Digital
    Codec ID                    : A_AC3
    Duration                    : 1 h 31 min
    Bit rate mode               : Constant
    Bit rate                    : 256 kb/s
    Channel(s)                  : 2 channels
    Channel layout              : L R
    Sampling rate               : 48.0 kHz
    Frame rate                  : 31.250 FPS (1536 SPF)
    Compression mode            : Lossy
    Delay relative to video     : 1 s 983 ms
    Stream size                 : 167 MiB (1%)
    Language                    : Spanish
    Service kind                : Complete Main
    Default                     : Yes
    Forced                      : No

    Audio #2
    ID                          : 3
    Format                      : DTS XLL
    Format/Info                 : Digital Theater Systems
    Commercial name             : DTS-HD Master Audio
    Codec ID                    : A_DTS
    Duration                    : 1 h 31 min
    Bit rate mode               : Variable
    Bit rate                    : 5 221 kb/s
    Channel(s)                  : 8 channels
    Channel layout              : C L R LFE Lb Rb Lss Rss
    Sampling rate               : 48.0 kHz
    Frame rate                  : 93.750 FPS (512 SPF)
    Bit depth                   : 24 bits
    Compression mode            : Lossless
    Stream size                 : 3.33 GiB (16%)
    Language                    : English
    Default                     : No
    Forced                      : No

    Text #1
    ID                          : 4
    Format                      : UTF-8
    Codec ID                    : S_TEXT/UTF8
    Codec ID/Info               : UTF-8 Plain Text
    Duration                    : 1 h 30 min
    Bit rate                    : 42 b/s
    Count of elements           : 822
    Stream size                 : 27.9 KiB (0%)
    Title                       : SRT
    Language                    : Spanish
    Default                     : Yes
    Forced                      : No

    Text #2
    ID                          : 5
    Format                      : PGS
    Muxing mode                 : zlib
    Codec ID                    : S_HDMV/PGS
    Codec ID/Info               : Picture based subtitle format used on BDs/HD-DVDs
    Duration                    : 1 h 30 min
    Bit rate                    : 22.2 kb/s
    Count of elements           : 1644
    Stream size                 : 14.3 MiB (0%)
    Title                       : PGS
    Language                    : Spanish
    Default                     : No
    Forced                      : No

    Menu
    00:00:00.000                : en:Opening Titles / Meet the Glove
    00:03:35.590                : en:You Gotta Stop That Kind of Dreaming
    00:05:51.433                : en:"I'm So Glad You Guys Could Come Over Tonight"
    00:08:10.990                : en:"There's Something Out There"
    00:10:44.018                : en:The Call of the Wind
    00:14:48.053                : en:A Bloody Mess
    00:18:26.689                : en:"She Didn't Want to Sleep Alone"
    00:20:27.643                : en:Captured
    00:23:06.343                : en:Hamlet Hijack
    00:29:27.431                : en:Rod Sings
    00:31:39.855                : en:Splash
    00:34:22.893                : en:Guarding Nancy
    00:37:03.387                : en:Feather Bed
    00:43:13.422                : en:Hung Up
    00:47:28.971                : en:The Hat Comes Back
    00:51:29.710                : en:"You're Dead"
    00:56:19.543                : en:"Mommy Killed Him"
    00:58:51.527                : en:"Midnight, Baseball Bats, and Boogeymen"
    01:02:59.693                : en:No Way Out
    01:08:02.369                : en:It's A Gusher
    01:11:49.514                : en:Survivalist
    01:15:34.654                : en:Finding Freddy
    01:21:04.693                : en:Fight Fire with Fire
    01:25:26.037                : en:"You're Shit"
    01:29:06.591                : en:End Credits

  • Peso: 21.1 GiB

Sinopsis

Varios jóvenes de una pequeña localidad tienen habitualmente pesadillas en las que son perseguidos por un hombre deformado por el fuego y que usa un guante terminado en afiladas cuchillas. Algunos de ellos comienzan a ser asesinados mientras duermen por este ser, que resulta ser un asesino al que los padres de estos jóvenes quemaron vivo hace varios años tras descubrir que había asesinado a varios niños.

Ficha técnica

  • Titulo original: A Nightmare on Elm Street
  • Fecha de lanzamiento: 14-11-1984 (United States of America)
  • Director: Wes Craven
  • Género: Remux, Terror

Video trailer de la película

Enlaces de descarga

Rip de Bluray

Descargar A Nightmare on Elm Street (1984) REMUX 1080p Latino




Aportes de DPeliculasHDmega la pass es:dpeliculashdmega.org Aportes de CinemaniaHD la pass es:cinemaniahdd.com
Guardado en : Remux , Terror

Películas relacionadas

  • Wire Room (2022) REMUX 1080p Latino

    Wire Room (2022) REMUX 1080p Latino

    2022
    Wire Room (2022) REMUX 1080p Latino

    1h 37m 2022

    Descargar Wire Room (2022) REMUX 1080p Latino. Mientras está de servicio en la sala de cables, un agente...

    Director: Matt Eskandari

    Género: Acción

    Actores: Texas Battle

  • Alarido (2022) HD 1080p Latino

    Alarido (2022) HD 1080p Latino

    2022
    Alarido (2022) HD 1080p Latino

    1h 29m 2022

    Descargar Alarido (2022) HD 1080p Latino. Una joven madre soltera es cautiva junto con sus dos hijos...

    Director: D.J. Caruso

    Género: HD 1080p

    Actores: Vincent Gallo

  • Alarido (2022) PLACEBO Full HD 1080p Latino

    Alarido (2022) PLACEBO Full HD 1080p Latino

    2022
    Alarido (2022) PLACEBO Full HD 1080p Latino

    1h 29m 2022

    Descargar Alarido (2022) PLACEBO Full HD 1080p Latino. Una joven madre soltera es cautiva junto con sus...

    Director: D.J. Caruso

    Género: FULL 1080p Plateadas

    Actores: Vincent Gallo

descargar A Nightmare on Elm Street (1984) REMUX 1080p Latino Full 1080p 1080p gratis, A Nightmare on Elm Street (1984) REMUX 1080p Latino Full 1080p mega 1 link, A Nightmare on Elm Street (1984) REMUX 1080p Latino Full 1080p pelicula completa, descargar A Nightmare on Elm Street (1984) REMUX 1080p Latino Full 1080p gratis en mega.

A Nightmare on Elm Street (1984) REMUX 1080p Latino pelicula full hd, A Nightmare on Elm Street (1984) REMUX 1080p Latino mega latino, A Nightmare on Elm Street (1984) REMUX 1080p Latino 4k latino, A Nightmare on Elm Street (1984) REMUX 1080p Latino pelicula completa, A Nightmare on Elm Street (1984) REMUX 1080p Latino descargar gratis, descargar A Nightmare on Elm Street (1984) REMUX 1080p Latino pelicula latino, A Nightmare on Elm Street (1984) REMUX 1080p Latino 1 link mega, A Nightmare on Elm Street (1984) REMUX 1080p Latino 1 link google drive, A Nightmare on Elm Street (1984) REMUX 1080p Latino hd 1080p latino.
Comentarios 4
  • Marcos - 07 junio, 2020

    Realmente es el formato REMUX? la calidad mas alta?

  • Ruddy Yankee - 20 mayo, 2020

    Sólo la van a subir con esta calidad, no la subiran en carátula plateada ?

    • Dracarys - 20 mayo, 2020

      mas adelante se subira en negra y plateada