×

¿Problemas para descargar con Mozilla, EDGE? Deshabilita la opción "Abrir vinculos en una pestaña nueva" tal como lo muestra ésta imagen.

A Monster Calls (2016) REMUX 1080p Latino – CMHDD

168 vistas

Información de A Monster Calls (2016) REMUX 1080p Latino – CMHDD

Datos de la película

  • Calidad: Full 1080p
  • Audio: Español Latino DTS 5.1 BLURAY - Ingles DTS 5.1 BLURAY
  • Subtitulos: Español Latino PGS
  • Resolución: 1920x1080p
  • Formato: MKV
  • Codec: H.264
  • Encoder: Dracarys
  • Mediainfo: Clic para Mostrar Datos Ver
  • Format                      : Matroska
    Format version              : Version 4
    File size                   : 29.5 GiB
    Duration                    : 1 h 48 min
    Overall bit rate mode       : Variable
    Overall bit rate            : 39.1 Mb/s
    Movie name                  : A Monster Calls (2016) REMUX 1080p Latino - CMHDD
    Encoded date                : UTC 2023-08-29 23:20:26
    Writing application         : mkvmerge v47.0.0 ('Black Flag') 64-bit
    Writing library             : libebml v1.3.10 + libmatroska v1.5.2
    Cover                       : Yes
    Attachments                 : cover.jpg

    Video
    ID                          : 1
    ID in the original source m : 4113 (0x1011)
    Format                      : AVC
    Format/Info                 : Advanced Video Codec
    Format profile              : High@L4.1
    Format settings             : CABAC / 4 Ref Frames
    Format settings, CABAC      : Yes
    Format settings, Reference  : 4 frames
    Format settings, GOP        : M=1, N=12
    Codec ID                    : V_MPEG4/ISO/AVC
    Duration                    : 1 h 48 min
    Bit rate mode               : Variable
    Bit rate                    : 34.6 Mb/s
    Maximum bit rate            : 37.0 Mb/s
    Width                       : 1 920 pixels
    Height                      : 1 080 pixels
    Display aspect ratio        : 16:9
    Frame rate mode             : Constant
    Frame rate                  : 23.976 (24000/1001) FPS
    Color space                 : YUV
    Chroma subsampling          : 4:2:0
    Bit depth                   : 8 bits
    Scan type                   : Progressive
    Bits/(Pixel*Frame)          : 0.696
    Stream size                 : 26.2 GiB (89%)
    Default                     : Yes
    Forced                      : No
    Original source medium      : Blu-ray

    Audio #1
    ID                          : 2
    ID in the original source m : 4352 (0x1100)
    Format                      : DTS XLL
    Format/Info                 : Digital Theater Systems
    Commercial name             : DTS-HD Master Audio
    Codec ID                    : A_DTS
    Duration                    : 1 h 48 min
    Bit rate mode               : Variable
    Bit rate                    : 3 679 kb/s
    Channel(s)                  : 6 channels
    Channel layout              : C L R Ls Rs LFE
    Sampling rate               : 48.0 kHz
    Frame rate                  : 93.750 FPS (512 SPF)
    Bit depth                   : 24 bits
    Compression mode            : Lossless
    Stream size                 : 2.78 GiB (9%)
    Language                    : English
    Default                     : No
    Forced                      : No
    Original source medium      : Blu-ray

    Audio #2
    ID                          : 3
    ID in the original source m : 4353 (0x1101)
    Format                      : DTS
    Format/Info                 : Digital Theater Systems
    Codec ID                    : A_DTS
    Duration                    : 1 h 48 min
    Bit rate mode               : Constant
    Bit rate                    : 768 kb/s
    Channel(s)                  : 6 channels
    Channel layout              : C L R Ls Rs LFE
    Sampling rate               : 48.0 kHz
    Frame rate                  : 93.750 FPS (512 SPF)
    Bit depth                   : 24 bits
    Compression mode            : Lossy
    Stream size                 : 595 MiB (2%)
    Language                    : Spanish
    Default                     : Yes
    Forced                      : No
    Original source medium      : Blu-ray

    Text #1
    ID                          : 4
    ID in the original source m : 4609 (0x1201)
    Format                      : PGS
    Muxing mode                 : zlib
    Codec ID                    : S_HDMV/PGS
    Codec ID/Info               : Picture based subtitle format used on BDs/HD-DVDs
    Duration                    : 1 h 46 min
    Bit rate                    : 24.4 kb/s
    Frame rate                  : 0.317 FPS
    Count of elements           : 2028
    Stream size                 : 18.6 MiB (0%)
    Language                    : Spanish
    Default                     : No
    Forced                      : No
    Original source medium      : Blu-ray

    Text #2
    ID                          : 5
    ID in the original source m : 4611 (0x1203)
    Format                      : PGS
    Muxing mode                 : zlib
    Codec ID                    : S_HDMV/PGS
    Codec ID/Info               : Picture based subtitle format used on BDs/HD-DVDs
    Duration                    : 1 h 40 min
    Bit rate                    : 77 b/s
    Frame rate                  : 0.001 FPS
    Count of elements           : 8
    Stream size                 : 56.7 KiB (0%)
    Language                    : Spanish
    Default                     : Yes
    Forced                      : No
    Original source medium      : Blu-ray

    Menu
    00:00:00.000                : en:Capítulo 01
    00:05:09.559                : en:Capítulo 02
    00:09:16.264                : en:Capítulo 03
    00:16:46.714                : en:Capítulo 04
    00:20:22.721                : en:Capítulo 05
    00:24:20.876                : en:Capítulo 06
    00:31:41.399                : en:Capítulo 07
    00:36:14.505                : en:Capítulo 08
    00:42:54.697                : en:Capítulo 09
    00:52:17.551                : en:Capítulo 10
    00:58:55.907                : en:Capítulo 11
    01:03:41.025                : en:Capítulo 12
    01:10:02.198                : en:Capítulo 13
    01:14:44.605                : en:Capítulo 14
    01:19:08.910                : en:Capítulo 15
    01:23:26.418                : en:Capítulo 16
    01:28:41.941                : en:Capítulo 17
    01:31:18.347                : en:Capítulo 18
    01:36:03.382                : en:Capítulo 19
    01:40:24.226                : en:Capítulo 20

  • Peso: 29.5 GiB

Sinopsis

Connor es un joven de 12 años que, tras la separación de sus padres, se convierte en el hombre de la casa y el encargado de llevar las riendas del hogar. Con su joven madre enferma de cáncer, el pequeño intentará superar todos sus miedos y fobias con la ayuda de un monstruo. Fantasía, cuentos de hadas e historias imaginarias del pequeño se verán las caras no sólo con la realidad, sino con su fría y calculadora abuela… Con este nuevo trabajo J.A. Bayona cerrará una trilogía sobre las relaciones madre-hijo, que inició con «El orfanato» y continuó con «Lo imposible».

Ficha técnica

Video trailer de la película

Enlaces de descarga

Rip de Bluray

Descargar A Monster Calls (2016) REMUX 1080p Latino – CMHDD


Aportes de DPeliculasHDmega la pass es:dpeliculashdmega.org Aportes de CinemaniaHD la pass es:cinemaniahdd.com Aportes recientes:cinemaniahdd.net
Guardado en : Drama , Fantasía

Películas relacionadas

  • iZombie (2016) Temporada 02 Full HD 1080p Latino

    iZombie (2016) Temporada 02 Full HD 1080p Latino

    2015
    iZombie (2016) Temporada 02 Full HD 1080p Latino

    0h 42m 2015

    Descargar iZombie (2016) Temporada 02 Full HD 1080p Latino. Gira en torno a una estudiante de medicina...

    Director: Rob Thomas

    Género: Crimen

    Actores: Rose McIver

  • iZombie (2016) Temporada 02 REMUX 1080p Latino

    iZombie (2016) Temporada 02 REMUX 1080p Latino

    2015
    iZombie (2016) Temporada 02 REMUX 1080p Latino

    0h 42m 2015

    Descargar iZombie (2016) Temporada 02 REMUX 1080p Latino. Gira en torno a una estudiante de medicina...

    Director: Rob Thomas

    Género: Crimen

    Actores: Rose McIver

  • iZombie (2015) Temporada 01 Full HD 1080p Latino

    iZombie (2015) Temporada 01 Full HD 1080p Latino

    2015
    iZombie (2015) Temporada 01 Full HD 1080p Latino

    0h 42m 2015

    Descargar iZombie (2015) Temporada 01 Full HD 1080p Latino. Gira en torno a una estudiante de medicina...

    Director: Rob Thomas

    Género: Crimen

    Actores: Rose McIver

  • iZombie (2015) Temporada 01 REMUX 1080p Latino

    iZombie (2015) Temporada 01 REMUX 1080p Latino

    2015
    iZombie (2015) Temporada 01 REMUX 1080p Latino

    0h 42m 2015

    Descargar iZombie (2015) Temporada 01 REMUX 1080p Latino. Gira en torno a una estudiante de medicina...

    Director: Rob Thomas

    Género: Crimen

    Actores: Rose McIver

descargar A Monster Calls (2016) REMUX 1080p Latino – CMHDD Full 1080p 1080p gratis, A Monster Calls (2016) REMUX 1080p Latino – CMHDD Full 1080p mega 1 link, A Monster Calls (2016) REMUX 1080p Latino – CMHDD Full 1080p pelicula completa, descargar A Monster Calls (2016) REMUX 1080p Latino – CMHDD Full 1080p gratis en mega.

A Monster Calls (2016) REMUX 1080p Latino – CMHDD pelicula full hd, A Monster Calls (2016) REMUX 1080p Latino – CMHDD mega latino, A Monster Calls (2016) REMUX 1080p Latino – CMHDD 4k latino, A Monster Calls (2016) REMUX 1080p Latino – CMHDD pelicula completa, A Monster Calls (2016) REMUX 1080p Latino – CMHDD descargar gratis, descargar A Monster Calls (2016) REMUX 1080p Latino – CMHDD pelicula latino, A Monster Calls (2016) REMUX 1080p Latino – CMHDD 1 link mega, A Monster Calls (2016) REMUX 1080p Latino – CMHDD 1 link google drive, A Monster Calls (2016) REMUX 1080p Latino – CMHDD hd 1080p latino.
Comentarios 0