×

¿Problemas para descargar con Mozilla, EDGE? Deshabilita la opción "Abrir vinculos en una pestaña nueva" tal como lo muestra ésta imagen.

A Million Miles Away (2023) AMZN WEB-DL 1080p Latino

173 vistas

Información de A Million Miles Away (2023) AMZN WEB-DL 1080p Latino

Datos de la película

  • Calidad:
  • Audio: Español Latino AC3 5.1 WEB-DL - Ingles AC3 5.1 WEB-DL
  • Subtitulos: Español Latino SRT- FORZADOS SRT
  • Resolución: 1920x1080
  • Formato: MKV
  • Codec: H.264
  • Encoder: cinemaniahdd
  • Mediainfo: Clic para Mostrar Datos Ver
  • A Million Miles Away (2023) AMZN WEB-DL 1080p Latino [CNMNHDD].mkv
    Format                      : Matroska
    Format version              : Version 4
    File size                   : 8.41 GiB
    Duration                    : 2 h 2 min
    Overall bit rate            : 9 865 kb/s
    Movie name                  : A millones de kilometros (2023) [1080p] - CinemaniaHDD.Net
    Encoded date                : UTC 2023-09-15 00:13:30
    Writing application         : mkvmerge v56.1.0 ('My Friend') 64-bit
    Writing library             : libebml v1.4.2 + libmatroska v1.6.4

    Video
    ID                          : 1
    Format                      : AVC
    Format/Info                 : Advanced Video Codec
    Format profile              : High@L4
    Format settings             : CABAC / 4 Ref Frames
    Format settings, CABAC      : Yes
    Format settings, Reference  : 4 frames
    Codec ID                    : V_MPEG4/ISO/AVC
    Duration                    : 2 h 2 min
    Bit rate mode               : Constant
    Bit rate                    : 7 942 kb/s
    Nominal bit rate            : 10 000 kb/s
    Width                       : 1 920 pixels
    Height                      : 1 040 pixels
    Display aspect ratio        : 1.85:1
    Frame rate mode             : Constant
    Frame rate                  : 24.000 FPS
    Color space                 : YUV
    Chroma subsampling          : 4:2:0
    Bit depth                   : 8 bits
    Scan type                   : Progressive
    Bits/(Pixel*Frame)          : 0.166
    Stream size                 : 6.77 GiB (81%)
    Title                       : CinemaniaHDD
    Default                     : Yes
    Forced                      : No
    Color range                 : Limited
    Color primaries             : BT.709
    Transfer characteristics    : BT.709
    Matrix coefficients         : BT.709

    Audio #1
    ID                          : 2
    Format                      : AC-3
    Format/Info                 : Audio Coding 3
    Commercial name             : Dolby Digital
    Codec ID                    : A_AC3
    Duration                    : 2 h 2 min
    Bit rate mode               : Constant
    Bit rate                    : 640 kb/s
    Channel(s)                  : 6 channels
    Channel layout              : L R C LFE Ls Rs
    Sampling rate               : 48.0 kHz
    Frame rate                  : 31.250 FPS (1536 SPF)
    Compression mode            : Lossy
    Stream size                 : 559 MiB (6%)
    Title                       : Español Latino [CinemaniaHDD]
    Language                    : Spanish
    Service kind                : Complete Main
    Default                     : Yes
    Forced                      : No

    Audio #2
    ID                          : 3
    Format                      : E-AC-3
    Format/Info                 : Enhanced AC-3
    Commercial name             : Dolby Digital Plus
    Codec ID                    : A_EAC3
    Duration                    : 2 h 2 min
    Bit rate mode               : Constant
    Bit rate                    : 640 kb/s
    Channel(s)                  : 6 channels
    Channel layout              : L R C LFE Ls Rs
    Sampling rate               : 48.0 kHz
    Frame rate                  : 31.250 FPS (1536 SPF)
    Compression mode            : Lossy
    Stream size                 : 559 MiB (6%)
    Title                       : Español latino / E-AC3 [CinemaniaHDD]
    Language                    : Spanish
    Service kind                : Complete Main
    Default                     : No
    Forced                      : No

    Audio #3
    ID                          : 4
    Format                      : E-AC-3
    Format/Info                 : Enhanced AC-3
    Commercial name             : Dolby Digital Plus
    Codec ID                    : A_EAC3
    Duration                    : 2 h 2 min
    Bit rate mode               : Constant
    Bit rate                    : 640 kb/s
    Channel(s)                  : 6 channels
    Channel layout              : L R C LFE Ls Rs
    Sampling rate               : 48.0 kHz
    Frame rate                  : 31.250 FPS (1536 SPF)
    Compression mode            : Lossy
    Stream size                 : 559 MiB (6%)
    Title                       : Inglés [CinemaniaHDD]
    Language                    : English
    Service kind                : Complete Main
    Default                     : No
    Forced                      : No

    Text #1
    ID                          : 5
    Format                      : UTF-8
    Codec ID                    : S_TEXT/UTF8
    Codec ID/Info               : UTF-8 Plain Text
    Duration                    : 1 h 54 min
    Bit rate                    : 2 b/s
    Count of elements           : 53
    Stream size                 : 1.81 KiB (0%)
    Title                       : Forzados [CinemaniaHDD]
    Language                    : Spanish
    Default                     : Yes
    Forced                      : Yes

    Text #2
    ID                          : 6
    Format                      : UTF-8
    Codec ID                    : S_TEXT/UTF8
    Codec ID/Info               : UTF-8 Plain Text
    Duration                    : 2 h 0 min
    Bit rate                    : 39 b/s
    Count of elements           : 1146
    Stream size                 : 34.4 KiB (0%)
    Title                       : Español Latino [CinemaniaHDD]
    Language                    : Spanish
    Default                     : No
    Forced                      : No

    Text #3
    ID                          : 7
    Format                      : UTF-8
    Codec ID                    : S_TEXT/UTF8
    Codec ID/Info               : UTF-8 Plain Text
    Duration                    : 2 h 0 min
    Bit rate                    : 63 b/s
    Count of elements           : 1845
    Stream size                 : 56.1 KiB (0%)
    Title                       : Inglés [CinemaniaHDD]
    Language                    : English
    Default                     : No
    Forced                      : No

    Menu
    00:00:00.000                : 1. Studio Logo
    00:00:27.000                : Scene 2
    00:03:08.000                : Scene 3
    00:04:41.000                : Scene 4
    00:05:37.000                : Scene 5
    00:05:54.000                : Scene 6
    00:07:46.000                : Scene 7
    00:08:55.000                : Scene 8
    00:09:11.000                : Scene 9
    00:09:16.000                : Scene 10
    00:11:32.000                : Scene 11
    00:13:58.000                : Scene 12
    00:16:37.000                : Scene 13
    00:17:48.000                : Scene 14
    00:17:54.000                : Scene 15
    00:20:19.000                : Scene 16
    00:21:20.000                : Scene 17
    00:24:21.000                : Scene 18
    00:25:20.000                : Scene 19
    00:28:31.000                : Scene 20
    00:29:38.000                : Scene 21
    00:33:21.000                : Scene 22
    00:36:18.000                : Scene 23
    00:37:43.000                : Scene 24
    00:41:00.000                : Scene 25
    00:41:37.000                : Scene 26
    00:45:54.000                : Scene 27
    00:49:19.000                : Scene 28
    00:50:21.000                : Scene 29
    00:52:46.000                : Scene 30
    00:54:37.000                : Scene 31
    00:57:04.000                : Scene 32
    00:58:23.000                : Scene 33
    01:00:18.000                : Scene 34
    01:02:15.000                : Scene 35
    01:02:21.000                : Scene 36
    01:04:41.000                : Scene 37
    01:07:13.000                : Scene 38
    01:08:40.000                : Scene 39
    01:11:24.000                : Scene 40
    01:12:28.000                : Scene 41
    01:15:12.000                : Scene 42
    01:18:16.000                : Scene 43
    01:20:30.000                : Scene 44
    01:22:05.000                : Scene 45
    01:24:10.000                : Scene 46
    01:24:26.000                : Scene 47
    01:24:33.000                : Scene 48
    01:26:46.000                : Scene 49
    01:28:35.000                : Scene 50
    01:30:49.000                : Scene 51
    01:30:57.000                : Scene 52
    01:32:44.000                : Scene 53
    01:33:44.000                : Scene 54
    01:35:50.000                : Scene 55
    01:37:39.000                : Scene 56
    01:39:45.000                : Scene 57
    01:41:02.000                : Scene 58
    01:42:48.000                : Scene 59
    01:43:42.000                : Scene 60
    01:49:43.000                : Scene 61
    01:50:57.000                : Scene 62
    01:51:13.000                : Scene 63
    01:51:18.000                : Scene 64
    01:51:28.000                : Scene 65
    01:51:37.000                : Scene 66
    01:51:44.000                : Scene 67
    01:51:57.000                : Scene 68
    01:52:06.000                : Scene 69
    01:52:13.000                : 70. End Credits
    01:54:39.000                : 71. Title Sequence
    01:54:48.000                : 72. End Credits

     

  • Peso: 8.41 GiB

Sinopsis

A millones de kilómetros es la historia real del trayecto de José Hernández, ingeniero de la NASA, y su familia de campesinos migrantes. Iniciando en un pueblo de Michoacán, pasando por los campos de San Joaquin Valley y llegando a más de 300 kilómetros sobre la Tierra en la Estación Espacial Internacional. Su familia y su determinación llevan a José a alcanzar lo que parecía una meta imposible.

Ficha técnica

  • Titulo original: A Million Miles Away
  • Fecha de lanzamiento: 08-09-2023 (Mexico, United States of America)
  • Director: Alejandra Márquez Abella
  • Género: Drama

Video trailer de la película

Enlaces de descarga

Rip de Bluray

Descargar A Million Miles Away (2023) AMZN WEB-DL 1080p Latino




Aportes de DPeliculasHDmega la pass es:dpeliculashdmega.org Aportes de CinemaniaHD la pass es:cinemaniahdd.com Aportes recientes:cinemaniahdd.net
Guardado en : Drama

Películas relacionadas

descargar A Million Miles Away (2023) AMZN WEB-DL 1080p Latino 1080p gratis, A Million Miles Away (2023) AMZN WEB-DL 1080p Latino mega 1 link, A Million Miles Away (2023) AMZN WEB-DL 1080p Latino pelicula completa, descargar A Million Miles Away (2023) AMZN WEB-DL 1080p Latino gratis en mega.

A Million Miles Away (2023) AMZN WEB-DL 1080p Latino pelicula full hd, A Million Miles Away (2023) AMZN WEB-DL 1080p Latino mega latino, A Million Miles Away (2023) AMZN WEB-DL 1080p Latino 4k latino, A Million Miles Away (2023) AMZN WEB-DL 1080p Latino pelicula completa, A Million Miles Away (2023) AMZN WEB-DL 1080p Latino descargar gratis, descargar A Million Miles Away (2023) AMZN WEB-DL 1080p Latino pelicula latino, A Million Miles Away (2023) AMZN WEB-DL 1080p Latino 1 link mega, A Million Miles Away (2023) AMZN WEB-DL 1080p Latino 1 link google drive, A Million Miles Away (2023) AMZN WEB-DL 1080p Latino hd 1080p latino.
Comentarios 0