×

¿Problemas para descargar con Mozilla, EDGE? Deshabilita la opción "Abrir vinculos en una pestaña nueva" tal como lo muestra ésta imagen.

A La Sombra De Las Torres: En Stuyvesant (2019) AMZN WEB-DL 1080p Latino

259 vistas

Información de A La Sombra De Las Torres: En Stuyvesant (2019) AMZN WEB-DL 1080p Latino

Datos de la película

  • Calidad: WEBDL
  • Audio: Español Latino AC3 2.0 WEB-DL - Ingles AC3 5.1 WEB-DL
  • Subtitulos: Español Latino SRT- FORZADOS SRT
  • Resolución: 1920x1080
  • Formato: MKV
  • Codec: H.264
  • Encoder: cinemaniahdd
  • Mediainfo: Clic para Mostrar Datos Ver
  • A La Sombra De Las Torres, El 11 De Septiembre En Stuyvesant (2019) AMZN WEB-DL 1080p Latino [CNMNHDD].mkv
    Format                      : Matroska
    Format version              : Version 4
    File size                   : 1.91 GiB
    Duration                    : 31 min 17 s
    Overall bit rate            : 8 738 kb/s
    Movie name                  : A La Sombra De Las Torres, El 11 De Septiembre En Stuyvesant (2019) - CinemaniaHDD.Net
    Encoded date                : UTC 2020-09-11 20:54:42
    Writing application         : mkvmerge v46.0.0 ('No Deeper Escape') 64-bit
    Writing library             : libebml v1.3.10 + libmatroska v1.5.2

    Video
    ID                          : 1
    Format                      : AVC
    Format/Info                 : Advanced Video Codec
    Format profile              : High@L4
    Format settings             : CABAC / 4 Ref Frames
    Format settings, CABAC      : Yes
    Format settings, Reference  : 4 frames
    Codec ID                    : V_MPEG4/ISO/AVC
    Duration                    : 31 min 17 s
    Bit rate mode               : Constant
    Bit rate                    : 7 840 kb/s
    Nominal bit rate            : 10 000 kb/s
    Width                       : 1 920 pixels
    Height                      : 1 080 pixels
    Display aspect ratio        : 16:9
    Frame rate mode             : Constant
    Frame rate                  : 23.976 (24000/1001) FPS
    Color space                 : YUV
    Chroma subsampling          : 4:2:0
    Bit depth                   : 8 bits
    Scan type                   : Progressive
    Bits/(Pixel*Frame)          : 0.158
    Stream size                 : 1.71 GiB (90%)
    Title                       : CinemaniaHDD
    Default                     : Yes
    Forced                      : No
    Color range                 : Limited
    Color primaries             : BT.709
    Transfer characteristics    : BT.709
    Matrix coefficients         : BT.709

    Audio #1
    ID                          : 2
    Format                      : AC-3
    Format/Info                 : Audio Coding 3
    Commercial name             : Dolby Digital
    Codec ID                    : A_AC3
    Duration                    : 31 min 17 s
    Bit rate mode               : Constant
    Bit rate                    : 256 kb/s
    Channel(s)                  : 2 channels
    Channel layout              : L R
    Sampling rate               : 48.0 kHz
    Frame rate                  : 31.250 FPS (1536 SPF)
    Compression mode            : Lossy
    Stream size                 : 57.3 MiB (3%)
    Title                       : Español latino [CinemaniaHDD]
    Language                    : Spanish
    Service kind                : Complete Main
    Default                     : Yes
    Forced                      : No

    Audio #2
    ID                          : 3
    Format                      : E-AC-3
    Format/Info                 : Enhanced AC-3
    Commercial name             : Dolby Digital Plus
    Codec ID                    : A_EAC3
    Duration                    : 31 min 17 s
    Bit rate mode               : Constant
    Bit rate                    : 640 kb/s
    Channel(s)                  : 6 channels
    Channel layout              : L R C LFE Ls Rs
    Sampling rate               : 48.0 kHz
    Frame rate                  : 31.250 FPS (1536 SPF)
    Compression mode            : Lossy
    Stream size                 : 143 MiB (7%)
    Title                       : Inglés [CinemaniaHDD]
    Language                    : English
    Service kind                : Complete Main
    Default                     : No
    Forced                      : No

    Text #1
    ID                          : 4
    Format                      : UTF-8
    Codec ID                    : S_TEXT/UTF8
    Codec ID/Info               : UTF-8 Plain Text
    Duration                    : 10 min 19 s
    Bit rate                    : 2 b/s
    Count of elements           : 5
    Stream size                 : 178 Bytes (0%)
    Title                       : Forzados [CinemaniaHDD]
    Language                    : Spanish
    Default                     : Yes
    Forced                      : Yes

    Text #2
    ID                          : 5
    Format                      : UTF-8
    Codec ID                    : S_TEXT/UTF8
    Codec ID/Info               : UTF-8 Plain Text
    Duration                    : 30 min 41 s
    Bit rate                    : 91 b/s
    Count of elements           : 555
    Stream size                 : 20.6 KiB (0%)
    Title                       : Español latino [CinemaniaHDD]
    Language                    : Spanish
    Default                     : No
    Forced                      : No

    Text #3
    ID                          : 6
    Format                      : UTF-8
    Codec ID                    : S_TEXT/UTF8
    Codec ID/Info               : UTF-8 Plain Text
    Duration                    : 31 min 3 s
    Bit rate                    : 102 b/s
    Count of elements           : 686
    Stream size                 : 23.4 KiB (0%)
    Title                       : Inglés [CinemaniaHDD]
    Language                    : English
    Default                     : No
    Forced                      : No

     

  • Peso: 1.91 GiB

Sinopsis

Documental sobre el 11 de septiembre contado por ocho personas que presenciaron los ataques cuando eran adolescentes e iban a Stuyvesant, un instituto de Nueva York a cuatro manzanas del World Trade Center.

Ficha técnica

  • Titulo original: In the Shadow of the Towers: Stuyvesant High on 9/11
  • Fecha de lanzamiento: 11-09-2019 (United States of America)
  • Director: Amy Schatz
  • Género: Documental

Video trailer de la película

Enlaces de descarga

Rip de Bluray

Descargar A La Sombra De Las Torres: En Stuyvesant (2019) AMZN WEB-DL 1080p Latino




Aportes de DPeliculasHDmega la pass es:dpeliculashdmega.org Aportes de CinemaniaHD la pass es:cinemaniahdd.com
Guardado en : Documental

Películas relacionadas

  • WWE Evil (2022) Primera Temporada PCOK WEB-DL 1080p Latino

    WWE Evil (2022) Primera Temporada PCOK WEB-DL 1080p Latino

    2022
    WWE Evil (2022) Primera Temporada PCOK WEB-DL 1080p Latino

    0h 45m 2022

    Una "exposición psicológica" de las mentes de los antagonistas más diabólicos en la historia de la...

    Director: John Cena 約翰·希南 江西男,趙喜娜

    Género: Documental

    Actores: John Cena

  • Audrey (2020) HD 1080p Latino

    Audrey (2020) HD 1080p Latino

    2020
    Audrey (2020) HD 1080p Latino

    1h 30m 2020

    Descargar Audrey (2020) HD 1080p Latino. Documental sobre la icónica actriz Audrey Hepburn, una de las...

    Director: Helena Coan

    Género: Documental

    Actores: Sean Hepburn Ferrer

  • Audrey (2020) PLACEBO Full HD 1080p Latino

    Audrey (2020) PLACEBO Full HD 1080p Latino

    2020
    Audrey (2020) PLACEBO Full HD 1080p Latino

    1h 30m 2020

    Descargar Audrey (2020) PLACEBO Full HD 1080p Latino. Documental sobre la icónica actriz Audrey Hepburn,...

    Director: Helena Coan

    Género: Documental

    Actores: Sean Hepburn Ferrer

descargar A La Sombra De Las Torres: En Stuyvesant (2019) AMZN WEB-DL 1080p Latino WEBDL 1080p gratis, A La Sombra De Las Torres: En Stuyvesant (2019) AMZN WEB-DL 1080p Latino WEBDL mega 1 link, A La Sombra De Las Torres: En Stuyvesant (2019) AMZN WEB-DL 1080p Latino WEBDL pelicula completa, descargar A La Sombra De Las Torres: En Stuyvesant (2019) AMZN WEB-DL 1080p Latino WEBDL gratis en mega.

A La Sombra De Las Torres: En Stuyvesant (2019) AMZN WEB-DL 1080p Latino pelicula full hd, A La Sombra De Las Torres: En Stuyvesant (2019) AMZN WEB-DL 1080p Latino mega latino, A La Sombra De Las Torres: En Stuyvesant (2019) AMZN WEB-DL 1080p Latino 4k latino, A La Sombra De Las Torres: En Stuyvesant (2019) AMZN WEB-DL 1080p Latino pelicula completa, A La Sombra De Las Torres: En Stuyvesant (2019) AMZN WEB-DL 1080p Latino descargar gratis, descargar A La Sombra De Las Torres: En Stuyvesant (2019) AMZN WEB-DL 1080p Latino pelicula latino, A La Sombra De Las Torres: En Stuyvesant (2019) AMZN WEB-DL 1080p Latino 1 link mega, A La Sombra De Las Torres: En Stuyvesant (2019) AMZN WEB-DL 1080p Latino 1 link google drive, A La Sombra De Las Torres: En Stuyvesant (2019) AMZN WEB-DL 1080p Latino hd 1080p latino.
Comentarios 0