×

¿Problemas para descargar con Mozilla, EDGE? Deshabilita la opción "Abrir vinculos en una pestaña nueva" tal como lo muestra ésta imagen.

A la Fuga (2022) REMUX 1080p Latino

178 vistas

Información de A la Fuga (2022) REMUX 1080p Latino

Datos de la película

  • Calidad: Full 1080p
  • Audio: Español Latino AC3 2.0 WEB-DL - Ingles DTS 5.1 BLURAY
  • Subtitulos: Español Latino SRT- FORZADOS SRT
  • Resolución: 1920x1080
  • Formato: MKV
  • Codec: H.264
  • Encoder: Melkor
  • Mediainfo: Clic para Mostrar Datos Ver
  • A La Fuga (2022) REMUX 1080p Latino.mkv
    Format                      : Matroska
    Format version              : Version 4
    File size                   : 19.6 GiB
    Duration                    : 1 h 36 min
    Overall bit rate mode       : Variable
    Overall bit rate            : 29.1 Mb/s
    Movie name                  : 9 Bullets (2022) CinemaniaHDD.Net
    Encoded date                : UTC 2022-06-26 18:09:26
    Writing application         : mkvmerge v56.1.0 ('My Friend') 64-bit
    Writing library             : libebml v1.4.2 + libmatroska v1.6.4
    Attachments                 : CINEMANIAHD.png

    Video
    ID                          : 1
    Format                      : AVC
    Format/Info                 : Advanced Video Codec
    Format profile              : High@L4.1
    Format settings             : CABAC / 4 Ref Frames
    Format settings, CABAC      : Yes
    Format settings, Reference  : 4 frames
    Format settings, GOP        : M=3, N=12
    Codec ID                    : V_MPEG4/ISO/AVC
    Duration                    : 1 h 36 min
    Bit rate mode               : Variable
    Bit rate                    : 25.6 Mb/s
    Maximum bit rate            : 33.3 Mb/s
    Width                       : 1 920 pixels
    Height                      : 1 080 pixels
    Display aspect ratio        : 16:9
    Frame rate mode             : Constant
    Frame rate                  : 23.976 (24000/1001) FPS
    Standard                    : NTSC
    Color space                 : YUV
    Chroma subsampling          : 4:2:0
    Bit depth                   : 8 bits
    Scan type                   : Progressive
    Bits/(Pixel*Frame)          : 0.515
    Stream size                 : 17.3 GiB (88%)
    Title                       : REMUX HD1080p [CinemaniaHDD]
    Language                    : zxx
    Default                     : Yes
    Forced                      : Yes
    Color range                 : Limited
    Color primaries             : BT.709
    Transfer characteristics    : BT.709
    Matrix coefficients         : BT.709

    Audio #1
    ID                          : 2
    Format                      : AC-3
    Format/Info                 : Audio Coding 3
    Commercial name             : Dolby Digital
    Codec ID                    : A_AC3
    Duration                    : 1 h 36 min
    Bit rate mode               : Constant
    Bit rate                    : 256 kb/s
    Channel(s)                  : 2 channels
    Channel layout              : L R
    Sampling rate               : 48.0 kHz
    Frame rate                  : 31.250 FPS (1536 SPF)
    Compression mode            : Lossy
    Stream size                 : 177 MiB (1%)
    Title                       : Español Latino [CinemaniaHDD]
    Language                    : Spanish
    Service kind                : Complete Main
    Default                     : Yes
    Forced                      : Yes

    Audio #2
    ID                          : 3
    Format                      : DTS XLL
    Format/Info                 : Digital Theater Systems
    Commercial name             : DTS-HD Master Audio
    Codec ID                    : A_DTS
    Duration                    : 1 h 36 min
    Bit rate mode               : Variable
    Bit rate                    : 3 208 kb/s
    Channel(s)                  : 6 channels
    Channel layout              : C L R Ls Rs LFE
    Sampling rate               : 48.0 kHz
    Frame rate                  : 93.750 FPS (512 SPF)
    Bit depth                   : 24 bits
    Compression mode            : Lossless
    Stream size                 : 2.16 GiB (11%)
    Title                       : Ingles [CinemaniaHDD]
    Language                    : English
    Default                     : No
    Forced                      : No

    Text #1
    ID                          : 4
    Format                      : UTF-8
    Codec ID                    : S_TEXT/UTF8
    Codec ID/Info               : UTF-8 Plain Text
    Duration                    : 1 h 18 min
    Bit rate                    : 0 b/s
    Count of elements           : 6
    Stream size                 : 73.0 Bytes (0%)
    Title                       : Forzados-SRT [CinemaniaHDD]
    Language                    : Spanish
    Default                     : Yes
    Forced                      : Yes

    Text #2
    ID                          : 5
    Format                      : UTF-8
    Codec ID                    : S_TEXT/UTF8
    Codec ID/Info               : UTF-8 Plain Text
    Duration                    : 1 h 27 min
    Bit rate                    : 46 b/s
    Count of elements           : 1017
    Stream size                 : 30.0 KiB (0%)
    Title                       : Español-SRT [CinemaniaHDD]
    Language                    : Spanish
    Default                     : No
    Forced                      : No

    Text #3
    ID                          : 6
    Format                      : PGS
    Muxing mode                 : zlib
    Codec ID                    : S_HDMV/PGS
    Codec ID/Info               : Picture based subtitle format used on BDs/HD-DVDs
    Duration                    : 1 h 36 min
    Bit rate                    : 55.5 kb/s
    Count of elements           : 2258
    Stream size                 : 38.2 MiB (0%)
    Title                       : Ingles [CinemaniaHDD]
    Language                    : English
    Default                     : No
    Forced                      : No

    Menu
    00:00:00.000                : Promise
    00:07:35.455                : ...Shhh
    00:15:06.823                : They Don`t Want Me Anyway
    00:22:03.030                : 5 Days
    00:30:31.580                : I`m Ready Now
    00:38:02.864                : Hold It Straight
    00:46:13.854                : If You Want to Be Great
    00:55:43.257                : Let`s Roll
    01:05:08.613                : 1 Mile Away
    01:11:17.148                : That`s Private
    01:21:04.318                : A deal is a Deal
    01:30:13.533                : End Credits

  • Peso: 19.6 GiB

Sinopsis

Descargar A la Fuga (2022) REMUX 1080p Latino. Una exbailarina de burlesque convertida en autora (Lena Headey) descubre una segunda oportunidad en la vida y la redención cuando arriesga todo para rescatar a su joven vecino después de que presencia el asesinato de sus padres. Ahora, huyendo del jefe del crimen local (Sam Worthington), quien resulta ser su ex de toda la vida, hace un intento desesperado por poner al niño a salvo.

Ficha técnica

Video trailer de la película

Enlaces de descarga

Rip de Bluray

Descargar A la Fuga (2022) REMUX 1080p Latino




Aportes de DPeliculasHDmega la pass es:dpeliculashdmega.org Aportes de CinemaniaHD la pass es:cinemaniahdd.com
Guardado en : Acción , Remux , Suspenso

Películas relacionadas

  • Wire Room (2022) HD 1080p Latino

    Wire Room (2022) HD 1080p Latino

    2022
    Wire Room (2022) HD 1080p Latino

    1h 37m 2022

    Descargar Wire Room (2022) HD 1080p Latino. Mientras está de servicio en la sala de cables, un agente...

    Director: Matt Eskandari

    Género: Acción

    Actores: Texas Battle

  • Wire Room (2022) PLACEBO Full HD 1080p Latino

    Wire Room (2022) PLACEBO Full HD 1080p Latino

    2022
    Wire Room (2022) PLACEBO Full HD 1080p Latino

    1h 37m 2022

    Descargar Wire Room (2022) PLACEBO Full HD 1080p Latino. Mientras está de servicio en la sala de cables,...

    Director: Matt Eskandari

    Género: Acción

    Actores: Texas Battle

  • Wire Room (2022) REMUX 1080p Latino

    Wire Room (2022) REMUX 1080p Latino

    2022
    Wire Room (2022) REMUX 1080p Latino

    1h 37m 2022

    Descargar Wire Room (2022) REMUX 1080p Latino. Mientras está de servicio en la sala de cables, un agente...

    Director: Matt Eskandari

    Género: Acción

    Actores: Texas Battle

  • Alarido (2022) HD 1080p Latino

    Alarido (2022) HD 1080p Latino

    2022
    Alarido (2022) HD 1080p Latino

    1h 29m 2022

    Descargar Alarido (2022) HD 1080p Latino. Una joven madre soltera es cautiva junto con sus dos hijos...

    Director: D.J. Caruso

    Género: HD 1080p

    Actores: Vincent Gallo

  • Alarido (2022) PLACEBO Full HD 1080p Latino

    Alarido (2022) PLACEBO Full HD 1080p Latino

    2022
    Alarido (2022) PLACEBO Full HD 1080p Latino

    1h 29m 2022

    Descargar Alarido (2022) PLACEBO Full HD 1080p Latino. Una joven madre soltera es cautiva junto con sus...

    Director: D.J. Caruso

    Género: FULL 1080p Plateadas

    Actores: Vincent Gallo

descargar A la Fuga (2022) REMUX 1080p Latino Full 1080p 1080p gratis, A la Fuga (2022) REMUX 1080p Latino Full 1080p mega 1 link, A la Fuga (2022) REMUX 1080p Latino Full 1080p pelicula completa, descargar A la Fuga (2022) REMUX 1080p Latino Full 1080p gratis en mega.

A la Fuga (2022) REMUX 1080p Latino pelicula full hd, A la Fuga (2022) REMUX 1080p Latino mega latino, A la Fuga (2022) REMUX 1080p Latino 4k latino, A la Fuga (2022) REMUX 1080p Latino pelicula completa, A la Fuga (2022) REMUX 1080p Latino descargar gratis, descargar A la Fuga (2022) REMUX 1080p Latino pelicula latino, A la Fuga (2022) REMUX 1080p Latino 1 link mega, A la Fuga (2022) REMUX 1080p Latino 1 link google drive, A la Fuga (2022) REMUX 1080p Latino hd 1080p latino.
Comentarios 0