×

¿Problemas para descargar con Mozilla, EDGE? Deshabilita la opción "Abrir vinculos en una pestaña nueva" tal como lo muestra ésta imagen.

A Joyous Christmas (2017) AMZN WEB-DL 1080p Latino

115 vistas

Información de A Joyous Christmas (2017) AMZN WEB-DL 1080p Latino

Datos de la película

  • Calidad:
  • Audio: Español Latino AC3 2.0 WEB-DL - Ingles AC3 2.0 WEB-DL
  • Subtitulos: Español Latino SRT
  • Resolución: 1920x1080
  • Formato: MKV
  • Codec: H.264
  • Encoder: cinemaniahdd
  • Mediainfo: Clic para Mostrar Datos Ver
  • A Joyous Christmas (2017) AMZN WEB-DL 1080p Latino [CNMNHDD].mkv
    Format                      : Matroska
    Format version              : Version 4
    File size                   : 6.02 GiB
    Duration                    : 1 h 25 min
    Overall bit rate            : 10.1 Mb/s
    Movie name                  : A Joyous Christmas (2017) - CinemaniaHDD.Net
    Encoded date                : UTC 2021-11-02 00:07:27
    Writing application         : mkvmerge v56.1.0 ('My Friend') 64-bit
    Writing library             : libebml v1.4.2 + libmatroska v1.6.4

    Video
    ID                          : 1
    Format                      : AVC
    Format/Info                 : Advanced Video Codec
    Format profile              : High@L4
    Format settings             : CABAC / 4 Ref Frames
    Format settings, CABAC      : Yes
    Format settings, Reference  : 4 frames
    Codec ID                    : V_MPEG4/ISO/AVC
    Duration                    : 1 h 25 min
    Bit rate mode               : Constant
    Bit rate                    : 10 000 kb/s
    Width                       : 1 920 pixels
    Height                      : 1 080 pixels
    Display aspect ratio        : 16:9
    Frame rate mode             : Constant
    Frame rate                  : 23.976 (24000/1001) FPS
    Color space                 : YUV
    Chroma subsampling          : 4:2:0
    Bit depth                   : 8 bits
    Scan type                   : Progressive
    Bits/(Pixel*Frame)          : 0.201
    Stream size                 : 5.75 GiB (96%)
    Title                       : CinemaniaHDD
    Language                    : English
    Default                     : Yes
    Forced                      : No
    Color range                 : Limited
    Color primaries             : BT.709
    Transfer characteristics    : BT.709
    Matrix coefficients         : BT.709

    Audio #1
    ID                          : 2
    Format                      : E-AC-3
    Format/Info                 : Enhanced AC-3
    Commercial name             : Dolby Digital Plus
    Codec ID                    : A_EAC3
    Duration                    : 1 h 25 min
    Bit rate mode               : Constant
    Bit rate                    : 224 kb/s
    Channel(s)                  : 2 channels
    Channel layout              : L R
    Sampling rate               : 48.0 kHz
    Frame rate                  : 31.250 FPS (1536 SPF)
    Compression mode            : Lossy
    Stream size                 : 137 MiB (2%)
    Title                       : Español latino [CinemaniaHDD]
    Language                    : Spanish
    Service kind                : Complete Main
    Default                     : Yes
    Forced                      : No

    Audio #2
    ID                          : 3
    Format                      : E-AC-3
    Format/Info                 : Enhanced AC-3
    Commercial name             : Dolby Digital Plus
    Codec ID                    : A_EAC3
    Duration                    : 1 h 25 min
    Bit rate mode               : Constant
    Bit rate                    : 224 kb/s
    Channel(s)                  : 2 channels
    Channel layout              : L R
    Sampling rate               : 48.0 kHz
    Frame rate                  : 31.250 FPS (1536 SPF)
    Compression mode            : Lossy
    Stream size                 : 137 MiB (2%)
    Title                       : Inglés [CinemaniaHDD]
    Language                    : English
    Service kind                : Complete Main
    Default                     : No
    Forced                      : No

    Text
    ID                          : 4
    Format                      : UTF-8
    Codec ID                    : S_TEXT/UTF8
    Codec ID/Info               : UTF-8 Plain Text
    Duration                    : 1 h 23 min
    Bit rate                    : 64 b/s
    Count of elements           : 1345
    Stream size                 : 39.3 KiB (0%)
    Title                       : Español latino [CinemaniaHDD]
    Language                    : Spanish
    Default                     : No
    Forced                      : No

     

  • Peso: 6.02 GiB

Sinopsis

Rachel Kennedy prepara una conferencia para el lanzamiento de su próximo libro cuando una desconocida la salva de ser atropellada. Se trata de una enigmática mujer que ayuda en un centro para niños desfavorecidos, pero que oculta un trágico pasado.

Ficha técnica

Video trailer de la película

Enlaces de descarga

Rip de Bluray

Descargar A Joyous Christmas (2017) AMZN WEB-DL 1080p Latino




Aportes de DPeliculasHDmega la pass es:dpeliculashdmega.org Aportes de CinemaniaHD la pass es:cinemaniahdd.com
Guardado en : Drama , Película de TV , Romance

Películas relacionadas

descargar A Joyous Christmas (2017) AMZN WEB-DL 1080p Latino 1080p gratis, A Joyous Christmas (2017) AMZN WEB-DL 1080p Latino mega 1 link, A Joyous Christmas (2017) AMZN WEB-DL 1080p Latino pelicula completa, descargar A Joyous Christmas (2017) AMZN WEB-DL 1080p Latino gratis en mega.

A Joyous Christmas (2017) AMZN WEB-DL 1080p Latino pelicula full hd, A Joyous Christmas (2017) AMZN WEB-DL 1080p Latino mega latino, A Joyous Christmas (2017) AMZN WEB-DL 1080p Latino 4k latino, A Joyous Christmas (2017) AMZN WEB-DL 1080p Latino pelicula completa, A Joyous Christmas (2017) AMZN WEB-DL 1080p Latino descargar gratis, descargar A Joyous Christmas (2017) AMZN WEB-DL 1080p Latino pelicula latino, A Joyous Christmas (2017) AMZN WEB-DL 1080p Latino 1 link mega, A Joyous Christmas (2017) AMZN WEB-DL 1080p Latino 1 link google drive, A Joyous Christmas (2017) AMZN WEB-DL 1080p Latino hd 1080p latino.
Comentarios 0