A.I. Artificial Intelligence (2001) Full HD 1080p Latino – CMHDD

50 vistas
1 estrella2 estrellas3 estrellas4 estrellas5 estrellas (2 votos, promedio: 4,50 de 5)
Cargando...

Información de A.I. Artificial Intelligence (2001) Full HD 1080p Latino – CMHDD

Datos de la película

  • Calidad: Full 1080p
  • Audio: Español Latino AC3 5.1 BLURAY - Ingles DTS 5.1 BLURAY
  • Subtitulos: Español Latino PGS
  • Resolución: 1920x1080p
  • Formato: MKV
  • Codec: H.264
  • Encoder: Dracarys
  • Mediainfo: Clic para Mostrar Datos Ver
  • Format                      : Matroska
    Format version              : Version 4
    File size                   : 20.0 GiB
    Duration                    : 2 h 25 min
    Overall bit rate mode       : Variable
    Overall bit rate            : 19.6 Mb/s
    Movie name                  : A.I. Artificial Intelligence (2001) Full HD 1080p Latino - CMHDD
    Encoded date                : UTC 2021-06-13 03:43:07
    Writing application         : mkvmerge v56.1.0 ('My Friend') 64-bit
    Writing library             : libebml v1.4.2 + libmatroska v1.6.4

    Video
    ID                          : 1
    Format                      : AVC
    Format/Info                 : Advanced Video Codec
    Format profile              : High@L4.1
    Format settings             : CABAC / 4 Ref Frames
    Format settings, CABAC      : Yes
    Format settings, Reference  : 4 frames
    Codec ID                    : V_MPEG4/ISO/AVC
    Duration                    : 2 h 25 min
    Bit rate                    : 14.9 Mb/s
    Width                       : 1 920 pixels
    Height                      : 1 080 pixels
    Display aspect ratio        : 16:9
    Frame rate mode             : Constant
    Frame rate                  : 23.976 (24000/1001) FPS
    Color space                 : YUV
    Chroma subsampling          : 4:2:0
    Bit depth                   : 8 bits
    Scan type                   : Progressive
    Bits/(Pixel*Frame)          : 0.300
    Stream size                 : 15.2 GiB (76%)
    Writing library             : x264 core 157 r2935 545de2f
    Encoding settings           : cabac=1 / ref=4 / deblock=1:0:0 / analyse=0x3:0x133 / me=tesa / subme=11 / psy=1 / psy_rd=1.00:0.00 / mixed_ref=1 / me_range=24 / chroma_me=1 / trellis=2 / 8x8dct=1 / cqm=0 / deadzone=21,11 / fast_pskip=0 / chroma_qp_offset=-2 / threads=24 / lookahead_threads=6 / sliced_threads=0 / nr=0 / decimate=1 / interlaced=0 / bluray_compat=0 / constrained_intra=0 / bframes=16 / b_pyramid=2 / b_adapt=2 / b_bias=0 / direct=3 / weightb=1 / open_gop=0 / weightp=2 / keyint=240 / keyint_min=24 / scenecut=40 / intra_refresh=0 / rc_lookahead=60 / rc=crf / mbtree=1 / crf=20.0 / qcomp=0.60 / qpmin=0 / qpmax=69 / qpstep=4 / vbv_maxrate=62500 / vbv_bufsize=78125 / crf_max=0.0 / nal_hrd=none / filler=0 / ip_ratio=1.40 / aq=1:1.00
    Default                     : Yes
    Forced                      : No
    Color range                 : Limited
    Color primaries             : BT.709
    Transfer characteristics    : BT.709
    Matrix coefficients         : BT.709

    Audio #1
    ID                          : 2
    Format                      : AC-3
    Format/Info                 : Audio Coding 3
    Commercial name             : Dolby Digital
    Codec ID                    : A_AC3
    Duration                    : 2 h 25 min
    Bit rate mode               : Constant
    Bit rate                    : 640 kb/s
    Channel(s)                  : 6 channels
    Channel layout              : L R C LFE Ls Rs
    Sampling rate               : 48.0 kHz
    Frame rate                  : 31.250 FPS (1536 SPF)
    Compression mode            : Lossy
    Stream size                 : 668 MiB (3%)
    Language                    : Spanish
    Service kind                : Complete Main
    Default                     : Yes
    Forced                      : No

    Audio #2
    ID                          : 3
    Format                      : DTS ES XLL
    Format/Info                 : Digital Theater Systems
    Commercial name             : DTS-HD Master Audio
    Codec ID                    : A_DTS
    Duration                    : 2 h 25 min
    Bit rate mode               : Variable
    Bit rate                    : 4 053 kb/s
    Channel(s)                  : 6 channels
    Channel(s)_Original         : 7 channels
    ChannelLayout_Original      : C L R Ls Rs LFE Cs
    Sampling rate               : 48.0 kHz
    Frame rate                  : 93.750 FPS (512 SPF)
    Bit depth                   : 24 bits
    Compression mode            : Lossless
    Stream size                 : 4.13 GiB (21%)
    Language                    : English
    Default                     : No
    Forced                      : No

    Text
    ID                          : 4
    Format                      : PGS
    Muxing mode                 : zlib
    Codec ID                    : S_HDMV/PGS
    Codec ID/Info               : Picture based subtitle format used on BDs/HD-DVDs
    Duration                    : 2 h 16 min
    Bit rate                    : 33.6 kb/s
    Count of elements           : 2326
    Stream size                 : 32.9 MiB (0%)
    Language                    : Spanish
    Default                     : No
    Forced                      : No

    Menu
    00:00:00.000                : :Chapter 1
    00:07:10.055                : :Chapter 2
    00:10:12.654                : :Chapter 3
    00:15:23.131                : :Chapter 4
    00:18:31.319                : :Chapter 5
    00:21:42.301                : :Chapter 6
    00:24:21.502                : :Chapter 7
    00:28:41.637                : :Chapter 8
    00:30:21.737                : :Chapter 9
    00:33:56.201                : :Chapter 10
    00:35:49.064                : :Chapter 11
    00:39:57.604                : :Chapter 12
    00:45:27.308                : :Chapter 13
    00:53:46.432                : :Chapter 14
    00:57:45.921                : :Chapter 15
    01:05:52.949                : :Chapter 16
    01:09:14.442                : :Chapter 17
    01:17:48.581                : :Chapter 18
    01:22:29.027                : :Chapter 19
    01:25:37.674                : :Chapter 20
    01:31:03.083                : :Chapter 21
    01:33:05.497                : :Chapter 22
    01:35:07.285                : :Chapter 23
    01:37:55.745                : :Chapter 24
    01:43:43.759                : :Chapter 25
    01:46:51.906                : :Chapter 26
    01:49:21.305                : :Chapter 27
    01:55:41.268                : :Chapter 28
    02:01:33.912                : :Chapter 29
    02:07:08.204                : :Chapter 30
    02:11:42.186                : :Chapter 31
    02:18:38.811                : :Chapter 32

  • Peso: 20.0 GiB

Sinopsis

En un futuro donde los avances científicos hacen posible la existencia, los humanos confían todos los aspectos de sus vidas a sofisticados robots denominados Mecas. La emoción es la última frontera en la evolución de las máquinas. Pero cuando un avanzado niño robótico llamado David es programado para amar, los humanos no están preparados para las consecuencias.

Ficha técnica

Video trailer de la película

Enlaces de descarga

Rip de Bluray

Descargar A.I. Artificial Intelligence (2001) Full HD 1080p Latino – CMHDD




Aportes de DPeliculasHDmega la pass es:dpeliculashdmega.org Aportes de CinemaniaHD la pass es:cinemaniahdd.com
Guardado en : Aventura , Ciencia ficción , Drama

Películas relacionadas

A.I. Artificial Intelligence (2001) Full HD 1080p Latino – CMHDD pelicula full hd, A.I. Artificial Intelligence (2001) Full HD 1080p Latino – CMHDD mega latino, A.I. Artificial Intelligence (2001) Full HD 1080p Latino – CMHDD 4k latino, A.I. Artificial Intelligence (2001) Full HD 1080p Latino – CMHDD pelicula completa, A.I. Artificial Intelligence (2001) Full HD 1080p Latino – CMHDD descargar gratis, descargar A.I. Artificial Intelligence (2001) Full HD 1080p Latino – CMHDD pelicula latino, A.I. Artificial Intelligence (2001) Full HD 1080p Latino – CMHDD 1 link mega, A.I. Artificial Intelligence (2001) Full HD 1080p Latino – CMHDD 1 link google drive, A.I. Artificial Intelligence (2001) Full HD 1080p Latino – CMHDD hd 1080p latino.
Comentarios 0