×

¿Problemas para descargar con Mozilla, EDGE? Deshabilita la opción "Abrir vinculos en una pestaña nueva" tal como lo muestra ésta imagen.

A Hidden Life (2019) WEB-DL 1080p Latino

1.223 vistas

Información de A Hidden Life (2019) WEB-DL 1080p Latino

Datos de la película

  • Calidad: WEBDL
  • Audio: Español Latino AC3 2.0 iTunes - Ingles AC3 5.1 iTunes
  • Subtitulos: Español Latino SRT- FORZADOS SRT
  • Resolución: 1920x802
  • Formato: MKV
  • Codec: H.264
  • Encoder: cinemaniahdd
  • Mediainfo: Clic para Mostrar Datos Ver
  • A Hidden Life (2019) WEB-DL 1080p Latino.mkv
    Format                      : Matroska
    Format version              : Version 4
    File size                   : 6.26 GiB
    Duration                    : 2 h 54 min
    Overall bit rate            : 5 131 kb/s
    Movie name                  : A Hidden Life (2019) - CinemaniaHDD.Net
    Encoded date                : UTC 2020-03-03 07:12:17
    Writing application         : mkvmerge v42.0.0 ('Overtime') 64-bit
    Writing library             : libebml v1.3.10 + libmatroska v1.5.2
    Cover                       : Yes
    Attachments                 : cover.jpg

    Video
    ID                          : 1
    Format                      : AVC
    Format/Info                 : Advanced Video Codec
    Format profile              : High@L4
    Format settings             : CABAC / 5 Ref Frames
    Format settings, CABAC      : Yes
    Format settings, ReFrames   : 5 frames
    Codec ID                    : V_MPEG4/ISO/AVC
    Duration                    : 2 h 54 min
    Bit rate                    : 4 490 kb/s
    Width                       : 1 920 pixels
    Height                      : 802 pixels
    Display aspect ratio        : 2.40:1
    Frame rate mode             : Constant
    Frame rate                  : 23.976 FPS
    Color space                 : YUV
    Chroma subsampling          : 4:2:0
    Bit depth                   : 8 bits
    Scan type                   : Progressive
    Bits/(Pixel*Frame)          : 0.122
    Stream size                 : 5.48 GiB (87%)
    Title                       : CinemaniaHDD
    Language                    : English
    Default                     : Yes
    Forced                      : No
    Color range                 : Limited
    Color primaries             : BT.709
    Transfer characteristics    : BT.709
    Matrix coefficients         : BT.709

    Audio #1
    ID                          : 2
    Format                      : AC-3
    Format/Info                 : Audio Coding 3
    Commercial name             : Dolby Digital
    Codec ID                    : A_AC3
    Duration                    : 2 h 54 min
    Bit rate mode               : Constant
    Bit rate                    : 256 kb/s
    Channel(s)                  : 2 channels
    Channel layout              : L R
    Sampling rate               : 48.0 kHz
    Frame rate                  : 31.250 FPS (1536 SPF)
    Bit depth                   : 16 bits
    Compression mode            : Lossy
    Delay relative to video     : -43 ms
    Stream size                 : 319 MiB (5%)
    Title                       : Español latino [CinemaniaHDD]
    Language                    : Spanish
    Service kind                : Complete Main
    Default                     : Yes
    Forced                      : No

    Audio #2
    ID                          : 3
    Format                      : AC-3
    Format/Info                 : Audio Coding 3
    Commercial name             : Dolby Digital
    Codec ID                    : A_AC3
    Duration                    : 2 h 54 min
    Bit rate mode               : Constant
    Bit rate                    : 384 kb/s
    Channel(s)                  : 6 channels
    Channel layout              : L R C LFE Ls Rs
    Sampling rate               : 48.0 kHz
    Frame rate                  : 31.250 FPS (1536 SPF)
    Bit depth                   : 16 bits
    Compression mode            : Lossy
    Delay relative to video     : -43 ms
    Stream size                 : 479 MiB (7%)
    Title                       : Inglés [CinemaniaHDD]
    Language                    : English
    Service kind                : Complete Main
    Default                     : No
    Forced                      : No

    Text #1
    ID                          : 4
    Format                      : UTF-8
    Codec ID                    : S_TEXT/UTF8
    Codec ID/Info               : UTF-8 Plain Text
    Duration                    : 2 h 50 min
    Bit rate                    : 0 b/s
    Count of elements           : 15
    Stream size                 : 695 Bytes (0%)
    Title                       : Forzados [CinemaniaHDD]
    Language                    : Spanish
    Default                     : Yes
    Forced                      : Yes

    Text #2
    ID                          : 5
    Format                      : UTF-8
    Codec ID                    : S_TEXT/UTF8
    Codec ID/Info               : UTF-8 Plain Text
    Duration                    : 2 h 52 min
    Bit rate                    : 18 b/s
    Count of elements           : 831
    Stream size                 : 23.8 KiB (0%)
    Title                       : Español latino [CinemaniaHDD]
    Language                    : Spanish
    Default                     : No
    Forced                      : No

    Menu
    00:00:00.000                : en:Chapter 01
    00:04:54.627                : en:Chapter 02
    00:08:14.827                : en:Chapter 03
    00:15:45.152                : en:Chapter 04
    00:21:19.110                : en:Chapter 05
    00:27:34.318                : en:Chapter 06
    00:32:40.540                : en:Chapter 07
    00:39:45.088                : en:Chapter 08
    00:45:37.982                : en:Chapter 09
    00:53:13.853                : en:Chapter 10
    00:58:10.691                : en:Chapter 11
    01:05:58.075                : en:Chapter 12
    01:10:22.505                : en:Chapter 13
    01:15:46.744                : en:Chapter 14
    01:23:50.268                : en:Chapter 15
    01:28:12.488                : en:Chapter 16
    01:35:25.087                : en:Chapter 17
    01:40:12.415                : en:Chapter 18
    01:47:18.799                : en:Chapter 19
    01:54:59.134                : en:Chapter 20
    02:00:59.202                : en:Chapter 21
    02:06:08.511                : en:Chapter 22
    02:11:11.021                : en:Chapter 23
    02:18:41.637                : en:Chapter 24
    02:23:33.845                : en:Chapter 25
    02:31:11.593                : en:Chapter 26
    02:38:04.213                : en:Chapter 27
    02:48:33.759                : en:Chapter 28

     

  • Peso: 6.26 GiB

Sinopsis

La historia del austriaco Franz Jägerstätter, objetor de conciencia, que se negó a luchar para los nazis durante la Segunda Guerra Mundial y acabó siendo ejecutado por ellos en 1943, para ser declarado mártir y beatificado por la Iglesia.

Ficha técnica

Video trailer de la película

Enlaces de descarga

Rip de Bluray

Descargar A Hidden Life (2019) WEB-DL 1080p Latino




Aportes de DPeliculasHDmega la pass es:dpeliculashdmega.org Aportes de CinemaniaHD la pass es:cinemaniahdd.com
Guardado en : Bélica , Drama , Historia

Películas relacionadas

descargar A Hidden Life (2019) WEB-DL 1080p Latino WEBDL 1080p gratis, A Hidden Life (2019) WEB-DL 1080p Latino WEBDL mega 1 link, A Hidden Life (2019) WEB-DL 1080p Latino WEBDL pelicula completa, descargar A Hidden Life (2019) WEB-DL 1080p Latino WEBDL gratis en mega.

A Hidden Life (2019) WEB-DL 1080p Latino pelicula full hd, A Hidden Life (2019) WEB-DL 1080p Latino mega latino, A Hidden Life (2019) WEB-DL 1080p Latino 4k latino, A Hidden Life (2019) WEB-DL 1080p Latino pelicula completa, A Hidden Life (2019) WEB-DL 1080p Latino descargar gratis, descargar A Hidden Life (2019) WEB-DL 1080p Latino pelicula latino, A Hidden Life (2019) WEB-DL 1080p Latino 1 link mega, A Hidden Life (2019) WEB-DL 1080p Latino 1 link google drive, A Hidden Life (2019) WEB-DL 1080p Latino hd 1080p latino.
Comentarios 0