Una vida oculta (2019) REMUX 1080p Latino

477 vistas
1 estrella2 estrellas3 estrellas4 estrellas5 estrellas (Ninguna valoración todavía)
Cargando...

Información de Una vida oculta (2019) REMUX 1080p Latino

Datos de la película

  • Calidad: Full 1080p
  • Audio: Español Latino AC3 5.1 BLURAY - Ingles DTS-HD Master 7.1 BLURAY
  • Subtitulos: Español Latino PGS - Ingles PGS
  • Resolución: 1920x1080p
  • Formato: MKV
  • Codec: H.264
  • Encoder: CinefiloCool
  • Mediainfo: Clic para Mostrar Datos Ver
  • Una Vida Oculta (2019) REMUX 1080p Latino-CMHDD.mkv
    Format                      : Matroska
    Format version              : Version 4
    File size                   : 39.9 GiB
    Duration                    : 2 h 54 min
    Overall bit rate mode       : Variable
    Overall bit rate            : 32.7 Mb/s
    Movie name                  : A Hidden Life (2019) CinemaniaHDD.Net
    Encoded date                : UTC 2020-03-29 18:41:33
    Writing application         : mkvmerge v42.0.0 ('Overtime') 64-bit
    Writing library             : libebml v1.3.10 + libmatroska v1.5.2
    Attachments                 : CINEMANIAHD.png

    Video
    ID                          : 1
    Format                      : AVC
    Format/Info                 : Advanced Video Codec
    Format profile              : High@L4.1
    Format settings             : CABAC / 2 Ref Frames
    Format settings, CABAC      : Yes
    Format settings, ReFrames   : 2 frames
    Codec ID                    : V_MPEG4/ISO/AVC
    Duration                    : 2 h 54 min
    Bit rate mode               : Variable
    Bit rate                    : 27.3 Mb/s
    Width                       : 1 920 pixels
    Height                      : 1 080 pixels
    Display aspect ratio        : 16:9
    Frame rate mode             : Constant
    Frame rate                  : 23.976 (24000/1001) FPS
    Color space                 : YUV
    Chroma subsampling          : 4:2:0
    Bit depth                   : 8 bits
    Scan type                   : Progressive
    Bits/(Pixel*Frame)          : 0.550
    Stream size                 : 33.3 GiB (84%)
    Title                       : Full HD1080p [REMUX]
    Default                     : Yes
    Forced                      : Yes

    Audio #1
    ID                          : 2
    Format                      : AC-3
    Format/Info                 : Audio Coding 3
    Commercial name             : Dolby Digital
    Codec ID                    : A_AC3
    Duration                    : 2 h 54 min
    Bit rate mode               : Constant
    Bit rate                    : 448 kb/s
    Channel(s)                  : 6 channels
    Channel layout              : L R C LFE Ls Rs
    Sampling rate               : 48.0 kHz
    Frame rate                  : 31.250 FPS (1536 SPF)
    Bit depth                   : 16 bits
    Compression mode            : Lossy
    Stream size                 : 559 MiB (1%)
    Title                       : AC3_5.1_Bluray_Esp
    Language                    : Spanish
    Service kind                : Complete Main
    Default                     : Yes
    Forced                      : Yes

    Audio #2
    ID                          : 3
    Format                      : DTS XLL
    Format/Info                 : Digital Theater Systems
    Commercial name             : DTS-HD Master Audio
    Codec ID                    : A_DTS
    Duration                    : 2 h 54 min
    Bit rate mode               : Variable
    Bit rate                    : 4 899 kb/s
    Channel(s)                  : 8 channels
    Channel layout              : C L R LFE Lb Rb Lss Rss
    Sampling rate               : 48.0 kHz
    Frame rate                  : 93.750 FPS (512 SPF)
    Bit depth                   : 24 bits
    Compression mode            : Lossless
    Stream size                 : 5.97 GiB (15%)
    Title                       : DTS-HD_7.1_Bluray_Eng
    Language                    : English
    Default                     : No
    Forced                      : No

    Text #1
    ID                          : 4
    Format                      : PGS
    Muxing mode                 : zlib
    Codec ID                    : S_HDMV/PGS
    Codec ID/Info               : Picture based subtitle format used on BDs/HD-DVDs
    Duration                    : 4 s 672 ms
    Bit rate                    : 153 kb/s
    Count of elements           : 4
    Stream size                 : 87.2 KiB (0%)
    Title                       : Sub_Forzados [PGS]
    Language                    : Spanish
    Default                     : Yes
    Forced                      : Yes

    Text #2
    ID                          : 5
    Format                      : PGS
    Muxing mode                 : zlib
    Codec ID                    : S_HDMV/PGS
    Codec ID/Info               : Picture based subtitle format used on BDs/HD-DVDs
    Duration                    : 2 h 52 min
    Bit rate                    : 18.4 kb/s
    Count of elements           : 1662
    Stream size                 : 22.8 MiB (0%)
    Title                       : Sub_Esp [PGS]
    Language                    : Spanish
    Default                     : No
    Forced                      : No

    Text #3
    ID                          : 6
    Format                      : PGS
    Muxing mode                 : zlib
    Codec ID                    : S_HDMV/PGS
    Codec ID/Info               : Picture based subtitle format used on BDs/HD-DVDs
    Duration                    : 2 h 53 min
    Bit rate                    : 27.5 kb/s
    Count of elements           : 2698
    Stream size                 : 34.2 MiB (0%)
    Title                       : Sub_Eng [PGS]
    Language                    : English
    Default                     : No
    Forced                      : No

    Text #4
    ID                          : 7
    Format                      : UTF-8
    Codec ID                    : S_TEXT/UTF8
    Codec ID/Info               : UTF-8 Plain Text
    Duration                    : 2 h 50 min
    Bit rate                    : 0 b/s
    Count of elements           : 15
    Stream size                 : 696 Bytes (0%)
    Title                       : Sub_Forzados
    Language                    : Spanish
    Default                     : No
    Forced                      : No

    Text #5
    ID                          : 8
    Format                      : UTF-8
    Codec ID                    : S_TEXT/UTF8
    Codec ID/Info               : UTF-8 Plain Text
    Duration                    : 2 h 52 min
    Bit rate                    : 18 b/s
    Count of elements           : 830
    Stream size                 : 23.8 KiB (0%)
    Title                       : Sub_Esp
    Language                    : Spanish
    Default                     : No
    Forced                      : No

    Menu
    00:00:00.000                : en:Chapter 01
    00:04:54.627                : en:Chapter 02
    00:08:14.827                : en:Chapter 03
    00:15:45.027                : en:Chapter 04
    00:21:19.111                : en:Chapter 05
    00:27:34.277                : en:Chapter 06
    00:32:40.208                : en:Chapter 07
    00:39:45.091                : en:Chapter 08
    00:45:37.776                : en:Chapter 09
    00:53:13.565                : en:Chapter 10
    00:58:10.737                : en:Chapter 11
    01:05:57.954                : en:Chapter 12
    01:10:22.509                : en:Chapter 13
    01:15:47.167                : en:Chapter 14
    01:23:50.275                : en:Chapter 15
    01:28:12.495                : en:Chapter 16
    01:35:25.094                : en:Chapter 17
    01:40:12.423                : en:Chapter 18
    01:47:18.807                : en:Chapter 19
    01:54:59.142                : en:Chapter 20
    02:00:59.585                : en:Chapter 21
    02:06:08.519                : en:Chapter 22
    02:11:10.737                : en:Chapter 23
    02:18:41.646                : en:Chapter 24
    02:23:33.855                : en:Chapter 25
    02:31:11.270                : en:Chapter 26
    02:38:04.224                : en:Chapter 27
    02:48:34.187                : en:Chapter 28

  • Peso: 39.9 GiB

Sinopsis

Descargar Una vida oculta (2019) REMUX 1080p Latino. La historia del austriaco Franz Jägerstätter, objetor de conciencia, que se negó a luchar para los nazis durante la Segunda Guerra Mundial y acabó siendo ejecutado por ellos en 1943, para ser declarado mártir y beatificado por la Iglesia.

Ficha técnica

  • Titulo original: A Hidden Life
  • Fecha de lanzamiento: 11-12-2019 (Germany, Italy, United States of America)
  • Director: Terrence Malick
  • Género: Bélica, Drama, Historia, Remux
  • Puntuación: 0.0 0 votos
  • Duración:
    3h 0m

Video trailer de la película

Enlaces de descarga

Rip de Bluray

Descargar Una vida oculta (2019) REMUX 1080p Latino




Aportes de DPeliculasHDmega la pass es:dpeliculashdmega.org Aportes de CinemaniaHD la pass es:cinemaniahdd.com
Guardado en : Bélica , Drama , Historia , Remux

Películas relacionadas

Una vida oculta (2019) REMUX 1080p Latino pelicula full hd, Una vida oculta (2019) REMUX 1080p Latino mega latino, Una vida oculta (2019) REMUX 1080p Latino 4k latino, Una vida oculta (2019) REMUX 1080p Latino pelicula completa, Una vida oculta (2019) REMUX 1080p Latino descargar gratis, descargar Una vida oculta (2019) REMUX 1080p Latino pelicula latino, Una vida oculta (2019) REMUX 1080p Latino 1 link mega, Una vida oculta (2019) REMUX 1080p Latino 1 link google drive, Una vida oculta (2019) REMUX 1080p Latino hd 1080p latino.
Comentarios 0