Una vida oculta (2019) 1080p Latino

1.037 vistas
1 estrella2 estrellas3 estrellas4 estrellas5 estrellas (1 votos, promedio: 5,00 de 5)
Cargando...

Información de Una vida oculta (2019) 1080p Latino

Datos de la película

  • Calidad: 1080p
  • Audio: Español Latino AC3 5.1 BLURAY - Ingles AC3 5.1 BLURAY
  • Subtitulos: Español Latino SRT - Ingles SRT
  • Resolución: 1920x804p
  • Formato: MKV
  • Codec: H.264
  • Encoder: CinefiloCool
  • Mediainfo: Clic para Mostrar Datos Ver
  • Una Vida Oculta (2019) 1080p Latino-CMHDD.mkv
    Format                      : Matroska
    Format version              : Version 4
    File size                   : 5.25 GiB
    Duration                    : 2 h 54 min
    Overall bit rate            : 4 314 kb/s
    Movie name                  : A Hidden Life (2019) CinemaniaHDD.Net
    Encoded date                : UTC 2020-03-29 21:13:26
    Writing application         : mkvmerge v42.0.0 ('Overtime') 64-bit
    Writing library             : libebml v1.3.10 + libmatroska v1.5.2
    Attachments                 : CINEMANIAHD.png

    Video
    ID                          : 1
    Format                      : AVC
    Format/Info                 : Advanced Video Codec
    Format profile              : High@L4.1
    Format settings             : CABAC / 5 Ref Frames
    Format settings, CABAC      : Yes
    Format settings, ReFrames   : 5 frames
    Codec ID                    : V_MPEG4/ISO/AVC
    Duration                    : 2 h 54 min
    Bit rate                    : 3 500 kb/s
    Width                       : 1 920 pixels
    Height                      : 804 pixels
    Display aspect ratio        : 2.40:1
    Frame rate mode             : Constant
    Frame rate                  : 23.976 (24000/1001) FPS
    Color space                 : YUV
    Chroma subsampling          : 4:2:0
    Bit depth                   : 8 bits
    Scan type                   : Progressive
    Bits/(Pixel*Frame)          : 0.095
    Stream size                 : 4.16 GiB (79%)
    Title                       : HD1080p [Bluray]
    Writing library             : x264 core 157 r2935 545de2f
    Encoding settings           : cabac=1 / ref=5 / deblock=1:-1:-1 / analyse=0x3:0x113 / me=hex / subme=8 / psy=1 / psy_rd=1.00:0.15 / mixed_ref=1 / me_range=16 / chroma_me=1 / trellis=2 / 8x8dct=1 / cqm=0 / deadzone=21,11 / fast_pskip=1 / chroma_qp_offset=-3 / threads=25 / lookahead_threads=4 / sliced_threads=0 / nr=0 / decimate=1 / interlaced=0 / bluray_compat=0 / constrained_intra=0 / bframes=3 / b_pyramid=2 / b_adapt=1 / b_bias=0 / direct=3 / weightb=1 / open_gop=0 / weightp=2 / keyint=240 / keyint_min=24 / scenecut=40 / intra_refresh=0 / rc_lookahead=50 / rc=abr / mbtree=1 / bitrate=3500 / ratetol=1.0 / qcomp=0.60 / qpmin=0 / qpmax=69 / qpstep=4 / vbv_maxrate=62500 / vbv_bufsize=78125 / nal_hrd=none / filler=0 / ip_ratio=1.40 / aq=1:1.00
    Default                     : Yes
    Forced                      : Yes
    Color range                 : Limited
    Color primaries             : BT.709
    Transfer characteristics    : BT.709
    Matrix coefficients         : BT.709

    Audio #1
    ID                          : 2
    Format                      : AC-3
    Format/Info                 : Audio Coding 3
    Commercial name             : Dolby Digital
    Codec ID                    : A_AC3
    Duration                    : 2 h 54 min
    Bit rate mode               : Constant
    Bit rate                    : 448 kb/s
    Channel(s)                  : 6 channels
    Channel layout              : L R C LFE Ls Rs
    Sampling rate               : 48.0 kHz
    Frame rate                  : 31.250 FPS (1536 SPF)
    Bit depth                   : 16 bits
    Compression mode            : Lossy
    Delay relative to video     : -5 ms
    Stream size                 : 559 MiB (10%)
    Title                       : AC3_5.1_Bluray_Esp
    Language                    : Spanish
    Service kind                : Complete Main
    Default                     : Yes
    Forced                      : Yes

    Audio #2
    ID                          : 3
    Format                      : AC-3
    Format/Info                 : Audio Coding 3
    Commercial name             : Dolby Digital
    Codec ID                    : A_AC3
    Duration                    : 2 h 54 min
    Bit rate mode               : Constant
    Bit rate                    : 448 kb/s
    Channel(s)                  : 6 channels
    Channel layout              : L R C LFE Ls Rs
    Sampling rate               : 48.0 kHz
    Frame rate                  : 31.250 FPS (1536 SPF)
    Bit depth                   : 16 bits
    Compression mode            : Lossy
    Delay relative to video     : -5 ms
    Stream size                 : 559 MiB (10%)
    Title                       : AC3_5.1_Bluray_Eng
    Language                    : English
    Service kind                : Complete Main
    Default                     : No
    Forced                      : No

    Text #1
    ID                          : 4
    Format                      : UTF-8
    Codec ID                    : S_TEXT/UTF8
    Codec ID/Info               : UTF-8 Plain Text
    Duration                    : 2 h 50 min
    Bit rate                    : 0 b/s
    Count of elements           : 15
    Stream size                 : 696 Bytes (0%)
    Title                       : Sub_Forzados
    Language                    : Spanish
    Default                     : Yes
    Forced                      : Yes

    Text #2
    ID                          : 5
    Format                      : UTF-8
    Codec ID                    : S_TEXT/UTF8
    Codec ID/Info               : UTF-8 Plain Text
    Duration                    : 2 h 52 min
    Bit rate                    : 18 b/s
    Count of elements           : 830
    Stream size                 : 23.8 KiB (0%)
    Title                       : Sub_Esp
    Language                    : Spanish
    Default                     : No
    Forced                      : No

    Text #3
    ID                          : 6
    Format                      : UTF-8
    Codec ID                    : S_TEXT/UTF8
    Codec ID/Info               : UTF-8 Plain Text
    Duration                    : 2 h 52 min
    Bit rate                    : 18 b/s
    Count of elements           : 880
    Stream size                 : 22.9 KiB (0%)
    Title                       : Sub_Eng
    Language                    : English
    Default                     : No
    Forced                      : No

    Menu
    00:00:00.000                : en:Chapter 01
    00:04:54.627                : en:Chapter 02
    00:08:14.827                : en:Chapter 03
    00:15:45.027                : en:Chapter 04
    00:21:19.111                : en:Chapter 05
    00:27:34.277                : en:Chapter 06
    00:32:40.208                : en:Chapter 07
    00:39:45.091                : en:Chapter 08
    00:45:37.776                : en:Chapter 09
    00:53:13.565                : en:Chapter 10
    00:58:10.737                : en:Chapter 11
    01:05:57.954                : en:Chapter 12
    01:10:22.509                : en:Chapter 13
    01:15:47.167                : en:Chapter 14
    01:23:50.275                : en:Chapter 15
    01:28:12.495                : en:Chapter 16
    01:35:25.094                : en:Chapter 17
    01:40:12.423                : en:Chapter 18
    01:47:18.807                : en:Chapter 19
    01:54:59.142                : en:Chapter 20
    02:00:59.585                : en:Chapter 21
    02:06:08.519                : en:Chapter 22
    02:11:10.737                : en:Chapter 23
    02:18:41.646                : en:Chapter 24
    02:23:33.855                : en:Chapter 25
    02:31:11.270                : en:Chapter 26
    02:38:04.224                : en:Chapter 27
    02:48:34.187                : en:Chapter 28

  • Peso: 5.25 GiB

Sinopsis

Descargar Una vida oculta (2019) 1080p Latino. La historia del austriaco Franz Jägerstätter, objetor de conciencia, que se negó a luchar para los nazis durante la Segunda Guerra Mundial y acabó siendo ejecutado por ellos en 1943, para ser declarado mártir y beatificado por la Iglesia.

Ficha técnica

  • Titulo original: A Hidden Life
  • Fecha de lanzamiento: 11-12-2019 (Germany, Italy, United States of America)
  • Director: Terrence Malick
  • Género: Bélica, Drama, HD 1080p, Historia
  • Puntuación: 5.0 1 votos
  • Duración:
    3h 0m

Video trailer de la película

Enlaces de descarga

Rip de Bluray

Descargar Una vida oculta (2019) 1080p Latino




Aportes de DPeliculasHDmega la pass es:dpeliculashdmega.org Aportes de CinemaniaHD la pass es:cinemaniahdd.com
Guardado en : Bélica , Drama , HD 1080p , Historia

Películas relacionadas

Una vida oculta (2019) 1080p Latino pelicula full hd, Una vida oculta (2019) 1080p Latino mega latino, Una vida oculta (2019) 1080p Latino 4k latino, Una vida oculta (2019) 1080p Latino pelicula completa, Una vida oculta (2019) 1080p Latino descargar gratis, descargar Una vida oculta (2019) 1080p Latino pelicula latino, Una vida oculta (2019) 1080p Latino 1 link mega, Una vida oculta (2019) 1080p Latino 1 link google drive, Una vida oculta (2019) 1080p Latino hd 1080p latino.
Comentarios 0