×

¿Problemas para descargar con Mozilla, EDGE? Deshabilita la opción "Abrir vinculos en una pestaña nueva" tal como lo muestra ésta imagen.

Cacería en Venecia (2023) REMUX 1080p Latino-CMHDD

118 vistas

Información de Cacería en Venecia (2023) REMUX 1080p Latino-CMHDD

Datos de la película

  • Calidad: Full 1080p
  • Audio: Español Latino AC3 5.1 BLURAY - Ingles DTS-HD Master 7.1 BLURAY
  • Subtitulos: Español Latino PGS - Ingles PGS
  • Resolución: 1920x1080p
  • Formato: MKV
  • Codec: H.264
  • Encoder: CinefiloCool | Source: FullBD -SH
  • Mediainfo: Clic para Mostrar Datos Ver
  • A.Haunting.in.Venice.2023.Bluray.REMUX.1080p.AVC.Latino-CC@CMHDD.mkv
    Format                      : Matroska
    Format version              : Version 4
    File size                   : 27.9 GiB
    Duration                    : 1 h 43 min
    Overall bit rate mode       : Variable
    Overall bit rate            : 38.7 Mb/s
    Movie name                  : A Haunting in Venice (2023) CinemaniaHDD.Net
    Encoded date                : UTC 2023-11-25 17:02:48
    Writing application         : mkvmerge v56.1.0 ('My Friend') 64-bit
    Writing library             : libebml v1.4.2 + libmatroska v1.6.4
    Cover                       : Yes
    Attachments                 : cover.jpg / CINEMANIAHD.png

    Video
    ID                          : 1
    ID in the original source m : 4113 (0x1011)
    Format                      : AVC
    Format/Info                 : Advanced Video Codec
    Format profile              : High@L4.1
    Format settings             : CABAC / 4 Ref Frames
    Format settings, CABAC      : Yes
    Format settings, Reference  : 4 frames
    Codec ID                    : V_MPEG4/ISO/AVC
    Duration                    : 1 h 43 min
    Bit rate mode               : Variable
    Bit rate                    : 33.8 Mb/s
    Maximum bit rate            : 37.5 Mb/s
    Width                       : 1 920 pixels
    Height                      : 1 080 pixels
    Display aspect ratio        : 16:9
    Frame rate mode             : Constant
    Frame rate                  : 23.976 (24000/1001) FPS
    Color space                 : YUV
    Chroma subsampling          : 4:2:0
    Bit depth                   : 8 bits
    Scan type                   : Progressive
    Bits/(Pixel*Frame)          : 0.681
    Stream size                 : 24.4 GiB (88%)
    Title                       : REMUX HD1080p [CinemaniaHDD]
    Default                     : Yes
    Forced                      : Yes
    Original source medium      : Blu-ray

    Audio #1
    ID                          : 2
    ID in the original source m : 4355 (0x1103)
    Format                      : AC-3
    Format/Info                 : Audio Coding 3
    Commercial name             : Dolby Digital
    Codec ID                    : A_AC3
    Duration                    : 1 h 43 min
    Bit rate mode               : Constant
    Bit rate                    : 640 kb/s
    Channel(s)                  : 6 channels
    Channel layout              : L R C LFE Ls Rs
    Sampling rate               : 48.0 kHz
    Frame rate                  : 31.250 FPS (1536 SPF)
    Compression mode            : Lossy
    Stream size                 : 473 MiB (2%)
    Title                       : Español Latino [CinemaniaHDD]
    Language                    : Spanish
    Service kind                : Complete Main
    Default                     : Yes
    Forced                      : Yes
    Original source medium      : Blu-ray

    Audio #2
    ID                          : 3
    ID in the original source m : 4352 (0x1100)
    Format                      : DTS XLL
    Format/Info                 : Digital Theater Systems
    Commercial name             : DTS-HD Master Audio
    Codec ID                    : A_DTS
    Duration                    : 1 h 43 min
    Bit rate mode               : Variable
    Bit rate                    : 4 139 kb/s
    Channel(s)                  : 8 channels
    Channel layout              : C L R LFE Lb Rb Lss Rss
    Sampling rate               : 48.0 kHz
    Frame rate                  : 93.750 FPS (512 SPF)
    Bit depth                   : 24 bits
    Compression mode            : Lossless
    Stream size                 : 2.99 GiB (11%)
    Title                       : Ingles [CinemaniaHDD]
    Language                    : English
    Default                     : No
    Forced                      : No
    Original source medium      : Blu-ray

    Text #1
    ID                          : 4
    ID in the original source m : 4612 (0x1204)
    Format                      : PGS
    Muxing mode                 : zlib
    Codec ID                    : S_HDMV/PGS
    Codec ID/Info               : Picture based subtitle format used on BDs/HD-DVDs
    Duration                    : 1 h 24 min
    Bit rate                    : 242 b/s
    Count of elements           : 14
    Stream size                 : 150 KiB (0%)
    Title                       : Forzados-PGS [CinemaniaHDD]
    Language                    : Spanish
    Default                     : No
    Forced                      : No
    Original source medium      : Blu-ray

    Text #2
    ID                          : 5
    ID in the original source m : 4610 (0x1202)
    Format                      : PGS
    Muxing mode                 : zlib
    Codec ID                    : S_HDMV/PGS
    Codec ID/Info               : Picture based subtitle format used on BDs/HD-DVDs
    Duration                    : 1 h 36 min
    Bit rate                    : 46.5 kb/s
    Count of elements           : 3038
    Stream size                 : 32.2 MiB (0%)
    Title                       : Español-PGS [CinemaniaHDD]
    Language                    : Spanish
    Default                     : No
    Forced                      : No
    Original source medium      : Blu-ray

    Text #3
    ID                          : 6
    ID in the original source m : 4608 (0x1200)
    Format                      : PGS
    Muxing mode                 : zlib
    Codec ID                    : S_HDMV/PGS
    Codec ID/Info               : Picture based subtitle format used on BDs/HD-DVDs
    Duration                    : 1 h 37 min
    Bit rate                    : 57.9 kb/s
    Count of elements           : 3698
    Stream size                 : 40.5 MiB (0%)
    Title                       : Ingles [CinemaniaHDD]
    Language                    : English
    Default                     : No
    Forced                      : No
    Original source medium      : Blu-ray

    Text #4
    ID                          : 7
    Format                      : UTF-8
    Codec ID                    : S_TEXT/UTF8
    Codec ID/Info               : UTF-8 Plain Text
    Duration                    : 1 h 24 min
    Bit rate                    : 0 b/s
    Count of elements           : 6
    Stream size                 : 180 Bytes (0%)
    Title                       : Forzados-SRT [CinemaniaHDD]
    Language                    : Spanish
    Default                     : Yes
    Forced                      : Yes

    Text #5
    ID                          : 8
    Format                      : UTF-8
    Codec ID                    : S_TEXT/UTF8
    Codec ID/Info               : UTF-8 Plain Text
    Duration                    : 1 h 36 min
    Bit rate                    : 67 b/s
    Count of elements           : 1519
    Stream size                 : 47.8 KiB (0%)
    Title                       : Español-SRT [CinemaniaHDD]
    Language                    : Spanish
    Default                     : No
    Forced                      : No

    Menu
    00:00:00.000                : Chapter 01
    00:02:39.576                : Chapter 02
    00:02:39.659                : Chapter 03
    00:03:33.171                : Chapter 04
    00:03:33.254                : Chapter 05
    00:06:40.858                : Chapter 06
    00:06:40.942                : Chapter 07
    00:11:54.380                : Chapter 08
    00:11:54.463                : Chapter 09
    00:17:41.101                : Chapter 10
    00:17:41.185                : Chapter 11
    00:19:04.351                : Chapter 12
    00:19:04.434                : Chapter 13
    00:23:12.766                : Chapter 14
    00:23:12.849                : Chapter 15
    00:28:36.172                : Chapter 16
    00:28:36.256                : Chapter 17
    00:33:09.737                : Chapter 18
    00:33:09.821                : Chapter 19
    00:36:11.502                : Chapter 20
    00:36:11.586                : Chapter 21
    00:42:54.822                : Chapter 22
    00:42:54.905                : Chapter 23
    00:46:47.137                : Chapter 24
    00:46:47.221                : Chapter 25
    00:51:00.974                : Chapter 26
    00:51:01.058                : Chapter 27
    00:55:04.009                : Chapter 28
    00:55:04.092                : Chapter 29
    01:01:57.380                : Chapter 30
    01:01:57.463                : Chapter 31
    01:07:12.737                : Chapter 32
    01:07:12.820                : Chapter 33
    01:11:02.216                : Chapter 34
    01:11:02.299                : Chapter 35
    01:16:03.559                : Chapter 36
    01:16:03.642                : Chapter 37
    01:20:41.545                : Chapter 38
    01:20:41.628                : Chapter 39
    01:29:08.343                : Chapter 40
    01:29:08.426                : Chapter 41
    01:30:14.742                : Chapter 42
    01:30:14.826                : Chapter 43
    01:35:09.203                : Chapter 44
    01:35:09.286                : Chapter 45
    01:40:16.343                : Chapter 46
    01:40:16.427                : Chapter 47
    01:43:22.529                : Chapter 48

  • Peso: 27.9 GiB

Sinopsis

Descargar Cacería en Venecia (2023) REMUX 1080p Latino-CMHDD. En la Venecia posterior a la Segunda Guerra Mundial, Poirot, ahora retirado y viviendo en su propio exilio, asiste a regañadientes a una sesión de espiritismo, cuando uno de los invitados es asesinado, por lo que depende del ex detective descubrir una vez más al asesino.

Ficha técnica

Video trailer de la película

Enlaces de descarga

Rip de Bluray

Descargar Cacería en Venecia (2023) REMUX 1080p Latino-CMHDD


Aportes de DPeliculasHDmega la pass es:dpeliculashdmega.org Aportes de CinemaniaHD la pass es:cinemaniahdd.com Aportes recientes:cinemaniahdd.net
Guardado en : Crimen , Misterio , Remux , Suspenso

Películas relacionadas

descargar Cacería en Venecia (2023) REMUX 1080p Latino-CMHDD Full 1080p 1080p gratis, Cacería en Venecia (2023) REMUX 1080p Latino-CMHDD Full 1080p mega 1 link, Cacería en Venecia (2023) REMUX 1080p Latino-CMHDD Full 1080p pelicula completa, descargar Cacería en Venecia (2023) REMUX 1080p Latino-CMHDD Full 1080p gratis en mega.

Cacería en Venecia (2023) REMUX 1080p Latino-CMHDD pelicula full hd, Cacería en Venecia (2023) REMUX 1080p Latino-CMHDD mega latino, Cacería en Venecia (2023) REMUX 1080p Latino-CMHDD 4k latino, Cacería en Venecia (2023) REMUX 1080p Latino-CMHDD pelicula completa, Cacería en Venecia (2023) REMUX 1080p Latino-CMHDD descargar gratis, descargar Cacería en Venecia (2023) REMUX 1080p Latino-CMHDD pelicula latino, Cacería en Venecia (2023) REMUX 1080p Latino-CMHDD 1 link mega, Cacería en Venecia (2023) REMUX 1080p Latino-CMHDD 1 link google drive, Cacería en Venecia (2023) REMUX 1080p Latino-CMHDD hd 1080p latino.
Comentarios 0