Cosa De Hombres (2003) REMUX 1080p Latino

38 vistas
1 estrella2 estrellas3 estrellas4 estrellas5 estrellas (Ninguna valoración todavía)
Cargando...

Información de Cosa De Hombres (2003) REMUX 1080p Latino

Datos de la película

  • Calidad: Full 1080p
  • Audio: Español Latino AC3 2.0 BLURAY - Ingles DTS 5.1 BLURAY
  • Subtitulos: Español Latino PGS - Ingles PGS
  • Resolución: 1920x1080p
  • Formato: MKV
  • Codec: H.264
  • Encoder: CinefiloCool
  • Mediainfo: Clic para Mostrar Datos Ver
  • Cosa De Hombres (2003) REMUX 1080p Latino-CMHDD.mkv
    Format                      : Matroska
    Format version              : Version 4
    File size                   : 25.8 GiB
    Duration                    : 1 h 41 min
    Overall bit rate mode       : Variable
    Overall bit rate            : 36.4 Mb/s
    Movie name                  : A Guy Thing (2003) CinemaniaHDD.Net
    Encoded date                : UTC 2021-03-08 06:26:24
    Writing application         : mkvmerge v51.0.0 ('I Wish') 64-bit
    Writing library             : libebml v1.4.0 + libmatroska v1.6.2
    Attachments                 : CINEMANIAHD.png

    Video
    ID                          : 1
    ID in the original source m : 4113 (0x1011)
    Format                      : AVC
    Format/Info                 : Advanced Video Codec
    Format profile              : High@L4.1
    Format settings             : CABAC / 4 Ref Frames
    Format settings, CABAC      : Yes
    Format settings, Reference  : 4 frames
    Codec ID                    : V_MPEG4/ISO/AVC
    Duration                    : 1 h 41 min
    Bit rate mode               : Variable
    Bit rate                    : 32.0 Mb/s
    Maximum bit rate            : 38.0 Mb/s
    Width                       : 1 920 pixels
    Height                      : 1 080 pixels
    Display aspect ratio        : 16:9
    Frame rate mode             : Constant
    Frame rate                  : 23.976 (24000/1001) FPS
    Color space                 : YUV
    Chroma subsampling          : 4:2:0
    Bit depth                   : 8 bits
    Scan type                   : Progressive
    Bits/(Pixel*Frame)          : 0.643
    Stream size                 : 22.7 GiB (88%)
    Title                       : REMUX HD1080p [CinemaniaHDD]
    Default                     : Yes
    Forced                      : No
    Color range                 : Limited
    Color primaries             : BT.709
    Transfer characteristics    : BT.709
    Matrix coefficients         : BT.709
    Original source medium      : Blu-ray

    Audio #1
    ID                          : 2
    ID in the original source m : 4353 (0x1101)
    Format                      : AC-3
    Format/Info                 : Audio Coding 3
    Commercial name             : Dolby Digital
    Codec ID                    : A_AC3
    Duration                    : 1 h 41 min
    Bit rate mode               : Constant
    Bit rate                    : 224 kb/s
    Channel(s)                  : 2 channels
    Channel layout              : L R
    Sampling rate               : 48.0 kHz
    Frame rate                  : 31.250 FPS (1536 SPF)
    Compression mode            : Lossy
    Stream size                 : 163 MiB (1%)
    Title                       : Español Latino [CinemaniaHDD]
    Language                    : Spanish
    Service kind                : Complete Main
    Default                     : Yes
    Forced                      : No
    Original source medium      : Blu-ray

    Audio #2
    ID                          : 3
    ID in the original source m : 4352 (0x1100)
    Format                      : DTS XLL
    Format/Info                 : Digital Theater Systems
    Commercial name             : DTS-HD Master Audio
    Codec ID                    : A_DTS
    Duration                    : 1 h 41 min
    Bit rate mode               : Variable
    Bit rate                    : 4 194 kb/s
    Channel(s)                  : 6 channels
    Channel layout              : C L R Ls Rs LFE
    Sampling rate               : 48.0 kHz
    Frame rate                  : 93.750 FPS (512 SPF)
    Bit depth                   : 24 bits
    Compression mode            : Lossless
    Stream size                 : 2.97 GiB (12%)
    Title                       : Ingles [CinemaniaHDD]
    Language                    : English
    Default                     : No
    Forced                      : No
    Original source medium      : Blu-ray

    Text #1
    ID                          : 4
    ID in the original source m : 4609 (0x1201)
    Format                      : PGS
    Muxing mode                 : zlib
    Codec ID                    : S_HDMV/PGS
    Codec ID/Info               : Picture based subtitle format used on BDs/HD-DVDs
    Duration                    : 1 h 36 min
    Bit rate                    : 48.0 kb/s
    Count of elements           : 2546
    Stream size                 : 33.1 MiB (0%)
    Title                       : Español-PGS [CinemaniaHDD]
    Language                    : Spanish
    Default                     : No
    Forced                      : No
    Original source medium      : Blu-ray

    Text #2
    ID                          : 5
    ID in the original source m : 4608 (0x1200)
    Format                      : PGS
    Muxing mode                 : zlib
    Codec ID                    : S_HDMV/PGS
    Codec ID/Info               : Picture based subtitle format used on BDs/HD-DVDs
    Duration                    : 1 h 36 min
    Bit rate                    : 48.7 kb/s
    Count of elements           : 2830
    Stream size                 : 33.8 MiB (0%)
    Title                       : Ingles-PGS [CinemaniaHDD]
    Language                    : Spanish
    Default                     : No
    Forced                      : No
    Original source medium      : Blu-ray

    Text #3
    ID                          : 6
    Format                      : UTF-8
    Codec ID                    : S_TEXT/UTF8
    Codec ID/Info               : UTF-8 Plain Text
    Duration                    : 34 min 40 s
    Bit rate                    : 0 b/s
    Count of elements           : 6
    Stream size                 : 95.0 Bytes (0%)
    Title                       : Forzados-SRT [CinemaniaHDD]
    Language                    : Spanish
    Default                     : Yes
    Forced                      : No

    Text #4
    ID                          : 7
    Format                      : UTF-8
    Codec ID                    : S_TEXT/UTF8
    Codec ID/Info               : UTF-8 Plain Text
    Duration                    : 1 h 36 min
    Bit rate                    : 60 b/s
    Count of elements           : 1482
    Stream size                 : 43.0 KiB (0%)
    Title                       : Español-SRT [CinemaniaHDD]
    Language                    : Spanish
    Default                     : No
    Forced                      : No

    Menu
    00:00:00.000                : en:Chapter 01
    00:04:27.225                : en:Chapter 02
    00:09:08.673                : en:Chapter 03
    00:10:05.354                : en:Chapter 04
    00:12:24.827                : en:Chapter 05
    00:14:13.435                : en:Chapter 06
    00:15:41.774                : en:Chapter 07
    00:19:30.669                : en:Chapter 08
    00:22:09.578                : en:Chapter 09
    00:24:31.887                : en:Chapter 10
    00:27:45.330                : en:Chapter 11
    00:31:10.785                : en:Chapter 12
    00:33:23.501                : en:Chapter 13
    00:34:07.962                : en:Chapter 14
    00:35:31.295                : en:Chapter 15
    00:39:34.121                : en:Chapter 16
    00:42:50.943                : en:Chapter 17
    00:45:25.806                : en:Chapter 18
    00:47:44.695                : en:Chapter 19
    00:52:37.154                : en:Chapter 20
    00:57:29.279                : en:Chapter 21
    01:03:12.663                : en:Chapter 22
    01:05:55.868                : en:Chapter 23
    01:08:05.456                : en:Chapter 24
    01:11:21.610                : en:Chapter 25
    01:14:10.529                : en:Chapter 26
    01:18:32.958                : en:Chapter 27
    01:21:10.615                : en:Chapter 28
    01:24:38.698                : en:Chapter 29
    01:27:47.887                : en:Chapter 30
    01:34:24.992                : en:Chapter 31
    01:37:21.585                : en:Chapter 32

  • Peso: 25.8 GiB

Sinopsis

Descargar Cosa De Hombres (2003) REMUX 1080p Latino. Paul -Jason Lee- está a punto de casarse con Karen -Selma Blair-, la novia perfecta. Pero después su despedia de soltero y de un encuentro completamente inesperado con la prima de su prometida -Julia Stiles-, Paul le cuenta a Karen una mentira para no preocuparla ante su inminente boda. La pequeña mentira se convertirá en una más grande, y pronto toda su vida será un conjunto de malentendidos….

Nota:
Proximamente Para Usuario Free, Disponible Solo Para VIP!!!

Ficha técnica

  • Titulo original: A Guy Thing
  • Fecha de lanzamiento: 17-01-2003 (United States of America)
  • Director: Chris Koch
  • Género: Comedia, Remux, Romance
  • Puntuación: 0.0 0 votos
  • Duración:
    1h 41m

Video trailer de la película

Enlaces de descarga

Rip de Bluray

Descargar Cosa De Hombres (2003) REMUX 1080p Latino




Aportes de DPeliculasHDmega la pass es:dpeliculashdmega.org Aportes de CinemaniaHD la pass es:cinemaniahdd.com
Guardado en : Comedia , Remux , Romance

Películas relacionadas

Cosa De Hombres (2003) REMUX 1080p Latino pelicula full hd, Cosa De Hombres (2003) REMUX 1080p Latino mega latino, Cosa De Hombres (2003) REMUX 1080p Latino 4k latino, Cosa De Hombres (2003) REMUX 1080p Latino pelicula completa, Cosa De Hombres (2003) REMUX 1080p Latino descargar gratis, descargar Cosa De Hombres (2003) REMUX 1080p Latino pelicula latino, Cosa De Hombres (2003) REMUX 1080p Latino 1 link mega, Cosa De Hombres (2003) REMUX 1080p Latino 1 link google drive, Cosa De Hombres (2003) REMUX 1080p Latino hd 1080p latino.
Comentarios 0