Cosa De Hombres (2003) 1080p Latino

46 vistas
1 estrella2 estrellas3 estrellas4 estrellas5 estrellas (Ninguna valoración todavía)
Cargando...

Información de Cosa De Hombres (2003) 1080p Latino

Datos de la película

  • Calidad: 1080p
  • Audio: Español Latino AC3 2.0 BLURAY - Ingles AC3 5.1 BLURAY
  • Subtitulos: Español Latino SRT - Ingles SRT
  • Resolución: 1920x1038p
  • Formato: MKV
  • Codec: H.264
  • Encoder: CinefiloCool
  • Mediainfo: Clic para Mostrar Datos Ver
  • Cosa De Hombres (2003) 1080p Latino-CMHDD.mkv
    Format                      : Matroska
    Format version              : Version 4
    File size                   : 2.96 GiB
    Duration                    : 1 h 41 min
    Overall bit rate            : 4 173 kb/s
    Movie name                  : A Guy Thing (2003) CinemaniaHDD.Net
    Encoded date                : UTC 2021-07-27 18:52:20
    Writing application         : mkvmerge v56.1.0 ('My Friend') 64-bit
    Writing library             : libebml v1.4.2 + libmatroska v1.6.4
    Attachments                 : CINEMANIAHD.png

    Video
    ID                          : 1
    Format                      : AVC
    Format/Info                 : Advanced Video Codec
    Format profile              : High@L4.1
    Format settings             : CABAC / 4 Ref Frames
    Format settings, CABAC      : Yes
    Format settings, Reference  : 4 frames
    Codec ID                    : V_MPEG4/ISO/AVC
    Duration                    : 1 h 41 min
    Bit rate                    : 3 500 kb/s
    Width                       : 1 920 pixels
    Height                      : 1 038 pixels
    Display aspect ratio        : 1.85:1
    Frame rate mode             : Constant
    Frame rate                  : 23.976 (24000/1001) FPS
    Color space                 : YUV
    Chroma subsampling          : 4:2:0
    Bit depth                   : 8 bits
    Scan type                   : Progressive
    Bits/(Pixel*Frame)          : 0.073
    Stream size                 : 2.48 GiB (84%)
    Title                       : HD1080p [CinemaniaHDD]
    Writing library             : x264 core 157 r2935 545de2f
    Encoding settings           : cabac=1 / ref=4 / deblock=1:-1:-1 / analyse=0x3:0x133 / me=umh / subme=9 / psy=1 / psy_rd=1.00:0.15 / mixed_ref=1 / me_range=16 / chroma_me=1 / trellis=2 / 8x8dct=1 / cqm=0 / deadzone=21,11 / fast_pskip=1 / chroma_qp_offset=-3 / threads=24 / lookahead_threads=2 / sliced_threads=0 / nr=0 / decimate=1 / interlaced=0 / bluray_compat=0 / constrained_intra=0 / bframes=3 / b_pyramid=2 / b_adapt=2 / b_bias=0 / direct=3 / weightb=1 / open_gop=0 / weightp=2 / keyint=240 / keyint_min=24 / scenecut=40 / intra_refresh=0 / rc_lookahead=60 / rc=2pass / mbtree=1 / bitrate=3500 / ratetol=1.0 / qcomp=0.60 / qpmin=0 / qpmax=69 / qpstep=4 / cplxblur=20.0 / qblur=0.5 / vbv_maxrate=62500 / vbv_bufsize=78125 / nal_hrd=none / filler=0 / ip_ratio=1.40 / aq=1:1.00
    Default                     : Yes
    Forced                      : Yes
    Color range                 : Limited
    Color primaries             : BT.709
    Transfer characteristics    : BT.709
    Matrix coefficients         : BT.709

    Audio #1
    ID                          : 2
    ID in the original source m : 4353 (0x1101)
    Format                      : AC-3
    Format/Info                 : Audio Coding 3
    Commercial name             : Dolby Digital
    Codec ID                    : A_AC3
    Duration                    : 1 h 41 min
    Bit rate mode               : Constant
    Bit rate                    : 224 kb/s
    Channel(s)                  : 2 channels
    Channel layout              : L R
    Sampling rate               : 48.0 kHz
    Frame rate                  : 31.250 FPS (1536 SPF)
    Compression mode            : Lossy
    Delay relative to video     : -5 ms
    Stream size                 : 163 MiB (5%)
    Title                       : Español Latino [CinemaniaHDD]
    Language                    : Spanish
    Service kind                : Complete Main
    Default                     : Yes
    Forced                      : Yes
    Original source medium      : Blu-ray

    Audio #2
    ID                          : 3
    Format                      : AC-3
    Format/Info                 : Audio Coding 3
    Commercial name             : Dolby Digital
    Codec ID                    : A_AC3
    Duration                    : 1 h 41 min
    Bit rate mode               : Constant
    Bit rate                    : 448 kb/s
    Channel(s)                  : 6 channels
    Channel layout              : L R C LFE Ls Rs
    Sampling rate               : 48.0 kHz
    Frame rate                  : 31.250 FPS (1536 SPF)
    Compression mode            : Lossy
    Delay relative to video     : -5 ms
    Stream size                 : 325 MiB (11%)
    Title                       : Ingles [CinemaniaHDD]
    Language                    : English
    Service kind                : Complete Main
    Default                     : No
    Forced                      : No

    Text #1
    ID                          : 4
    Format                      : UTF-8
    Codec ID                    : S_TEXT/UTF8
    Codec ID/Info               : UTF-8 Plain Text
    Duration                    : 34 min 40 s
    Bit rate                    : 0 b/s
    Count of elements           : 6
    Stream size                 : 95.0 Bytes (0%)
    Title                       : Forzados-SRT [CinemaniaHDD]
    Language                    : Spanish
    Default                     : Yes
    Forced                      : Yes

    Text #2
    ID                          : 5
    Format                      : UTF-8
    Codec ID                    : S_TEXT/UTF8
    Codec ID/Info               : UTF-8 Plain Text
    Duration                    : 1 h 36 min
    Bit rate                    : 60 b/s
    Count of elements           : 1482
    Stream size                 : 43.0 KiB (0%)
    Title                       : Español-SRT [CinemaniaHDD]
    Language                    : Spanish
    Default                     : No
    Forced                      : No

    Text #3
    ID                          : 6
    Format                      : UTF-8
    Codec ID                    : S_TEXT/UTF8
    Codec ID/Info               : UTF-8 Plain Text
    Duration                    : 1 h 36 min
    Bit rate                    : 74 b/s
    Count of elements           : 1415
    Stream size                 : 53.1 KiB (0%)
    Title                       : Ingles-SRT [CinemaniaHDD]
    Language                    : English
    Default                     : No
    Forced                      : No

    Menu
    00:00:00.000                : Chapter 01
    00:04:27.225                : Chapter 02
    00:09:08.673                : Chapter 03
    00:10:05.354                : Chapter 04
    00:12:24.827                : Chapter 05
    00:14:13.435                : Chapter 06
    00:15:41.774                : Chapter 07
    00:19:30.669                : Chapter 08
    00:22:09.578                : Chapter 09
    00:24:31.887                : Chapter 10
    00:27:45.330                : Chapter 11
    00:31:10.785                : Chapter 12
    00:33:23.501                : Chapter 13
    00:34:07.962                : Chapter 14
    00:35:31.295                : Chapter 15
    00:39:34.121                : Chapter 16
    00:42:50.943                : Chapter 17
    00:45:25.806                : Chapter 18
    00:47:44.695                : Chapter 19
    00:52:37.154                : Chapter 20
    00:57:29.279                : Chapter 21
    01:03:12.663                : Chapter 22
    01:05:55.868                : Chapter 23
    01:08:05.456                : Chapter 24
    01:11:21.610                : Chapter 25
    01:14:10.529                : Chapter 26
    01:18:32.958                : Chapter 27
    01:21:10.615                : Chapter 28
    01:24:38.698                : Chapter 29
    01:27:47.887                : Chapter 30
    01:34:24.992                : Chapter 31
    01:37:21.585                : Chapter 32

  • Peso: 2.96 GiB

Sinopsis

Descargar Cosa De Hombres (2003) 1080p Latino. Paul -Jason Lee- está a punto de casarse con Karen -Selma Blair-, la novia perfecta. Pero después su despedia de soltero y de un encuentro completamente inesperado con la prima de su prometida -Julia Stiles-, Paul le cuenta a Karen una mentira para no preocuparla ante su inminente boda. La pequeña mentira se convertirá en una más grande, y pronto toda su vida será un conjunto de malentendidos…

Ficha técnica

  • Titulo original: A Guy Thing
  • Fecha de lanzamiento: 17-01-2003 (United States of America)
  • Director: Chris Koch
  • Género: Comedia, HD 1080p, Romance
  • Puntuación: 0.0 0 votos
  • Duración:
    1h 41m

Video trailer de la película

Enlaces de descarga

Rip de Bluray

Descargar Cosa De Hombres (2003) 1080p Latino




Aportes de DPeliculasHDmega la pass es:dpeliculashdmega.org Aportes de CinemaniaHD la pass es:cinemaniahdd.com
Guardado en : Comedia , HD 1080p , Romance

Películas relacionadas

Cosa De Hombres (2003) 1080p Latino pelicula full hd, Cosa De Hombres (2003) 1080p Latino mega latino, Cosa De Hombres (2003) 1080p Latino 4k latino, Cosa De Hombres (2003) 1080p Latino pelicula completa, Cosa De Hombres (2003) 1080p Latino descargar gratis, descargar Cosa De Hombres (2003) 1080p Latino pelicula latino, Cosa De Hombres (2003) 1080p Latino 1 link mega, Cosa De Hombres (2003) 1080p Latino 1 link google drive, Cosa De Hombres (2003) 1080p Latino hd 1080p latino.
Comentarios 0