A Fortunate Man (2018) NF 1080p Latino

779 vistas
1 estrella2 estrellas3 estrellas4 estrellas5 estrellas (Ninguna valoración todavía)
Cargando...

Información de A Fortunate Man (2018) NF 1080p Latino

Datos de la película

  • Calidad: WEBDL
  • Audio: Español Latino AC3 5.1 Netflix - Ingles AC3 5.1 Netflix
  • Subtitulos: Español Latino SRT- FORZADOS SRT
  • Resolución: 1920x1080
  • Formato: MKV
  • Codec: H.264
  • Encoder: Chesse92
  • Mediainfo: Clic para Mostrar Datos Ver
  • A Fortunate Man  (2018) NF 1080p Latino.mkv
    Format                      : Matroska
    Format version              : Version 4
    File size                   : 3.11 GiB
    Duration                    : 2 h 47 min
    Overall bit rate mode       : Variable
    Overall bit rate            : 2 660 kb/s
    Movie name                  : fortuantemen
    Encoded date                : UTC 2019-04-19 14:14:10 / UTC 2019-04-01 16:02:38
    Writing application         : mkvmerge v11.0.0 ('Alive') 64bit
    Writing library             : libebml v1.3.4 + libmatroska v1.4.5 / Lavf58.0.0

    Video
    ID                          : 1
    Format                      : AVC
    Format/Info                 : Advanced Video Codec
    Format profile              : High@L4
    Format settings             : CABAC / 4 Ref Frames
    Format settings, CABAC      : Yes
    Format settings, ReFrames   : 4 frames
    Codec ID                    : V_MPEG4/ISO/AVC
    Duration                    : 2 h 47 min
    Bit rate mode               : Variable
    Bit rate                    : 1 840 kb/s
    Maximum bit rate            : 20.0 Mb/s
    Width                       : 1 920 pixels
    Height                      : 1 080 pixels
    Display aspect ratio        : 16:9
    Frame rate mode             : Constant
    Frame rate                  : 25.000 FPS
    Color space                 : YUV
    Chroma subsampling          : 4:2:0
    Bit depth                   : 8 bits
    Scan type                   : Progressive
    Bits/(Pixel*Frame)          : 0.035
    Stream size                 : 2.15 GiB (69%)
    Title                       : CinemaniaHDD
    Writing library             : x264 core 148 r2715 7e75228
    Encoding settings           : cabac=1 / ref=4 / deblock=1:0:0 / analyse=0x3:0x111 / me=umh / subme=10 / psy=1 / psy_rd=1.00:0.00 / mixed_ref=1 / me_range=120 / chroma_me=1 / trellis=2 / 8x8dct=1 / cqm=0 / deadzone=21,11 / fast_pskip=1 / chroma_qp_offset=-2 / threads=8 / lookahead_threads=2 / sliced_threads=0 / nr=0 / decimate=1 / interlaced=0 / bluray_compat=0 / stitchable=1 / constrained_intra=0 / bframes=16 / b_pyramid=2 / b_adapt=2 / b_bias=0 / direct=3 / weightb=1 / open_gop=0 / weightp=2 / keyint=250 / keyint_min=126 / scenecut=0 / intra_refresh=0 / rc_lookahead=250 / rc=crf / mbtree=1 / crf=16.0 / qcomp=0.50 / qpmin=6 / qpmax=51 / qpstep=4 / vbv_maxrate=20000 / vbv_bufsize=25000 / crf_max=0.0 / nal_hrd=vbr / filler=0 / ip_ratio=1.40 / aq=1:0.80
    Default                     : Yes
    Forced                      : No
    Statistics Tags Issue       : mkvmerge v11.0.0 ('Alive') 64bit 2019-04-19 14:14:10 / mkvmerge v11.0.0 ('Alive') 64bit 2019-04-19 14:14:10 / UTC 2019-04-01 16:02:38
    FromStats_BitRate           : 1890520
    FromStats_Duration          : 02:47:29.440000000
    FromStats_FrameCount        : 251236
    FromStats_StreamSize        : 2374833421

    Audio #1
    ID                          : 2
    Format                      : AC-3
    Format/Info                 : Audio Coding 3
    Commercial name             : Dolby Digital
    Codec ID                    : A_AC3
    Duration                    : 2 h 47 min
    Bit rate mode               : Constant
    Bit rate                    : 384 kb/s
    Channel(s)                  : 6 channels
    Channel layout              : L R C LFE Ls Rs
    Sampling rate               : 48.0 kHz
    Frame rate                  : 31.250 FPS (1536 SPF)
    Bit depth                   : 16 bits
    Compression mode            : Lossy
    Stream size                 : 460 MiB (14%)
    Title                       : Español latino [CinemaniaHDD]
    Language                    : Spanish
    Service kind                : Complete Main
    Default                     : Yes
    Forced                      : No
    Encoded date                : UTC 2019-04-01 16:02:39
    Statistics Tags Issue       : mkvmerge v11.0.0 ('Alive') 64bit 2019-04-19 14:14:10 / mkvmerge v11.0.0 ('Alive') 64bit 2019-04-19 14:14:10 / UTC 2019-04-01 16:02:38
    FromStats_BitRate           : 384000
    FromStats_Duration          : 02:47:30.464000000
    FromStats_FrameCount        : 314077
    FromStats_StreamSize        : 482422272

    Audio #2
    ID                          : 3
    Format                      : AC-3
    Format/Info                 : Audio Coding 3
    Commercial name             : Dolby Digital
    Codec ID                    : A_AC3
    Duration                    : 2 h 47 min
    Bit rate mode               : Constant
    Bit rate                    : 384 kb/s
    Channel(s)                  : 6 channels
    Channel layout              : L R C LFE Ls Rs
    Sampling rate               : 48.0 kHz
    Frame rate                  : 31.250 FPS (1536 SPF)
    Bit depth                   : 16 bits
    Compression mode            : Lossy
    Stream size                 : 460 MiB (14%)
    Language                    : English
    Service kind                : Complete Main
    Default                     : No
    Forced                      : No
    Encoded date                : UTC 2019-04-01 16:02:38
    Statistics Tags Issue       : mkvmerge v11.0.0 ('Alive') 64bit 2019-04-19 14:14:10 / mkvmerge v11.0.0 ('Alive') 64bit 2019-04-19 14:14:10 / UTC 2019-04-01 16:02:38
    FromStats_BitRate           : 384000
    FromStats_Duration          : 02:47:30.464000000
    FromStats_FrameCount        : 314077
    FromStats_StreamSize        : 482422272

    Text #1
    ID                          : 4
    Format                      : UTF-8
    Codec ID                    : S_TEXT/UTF8
    Codec ID/Info               : UTF-8 Plain Text
    Title                       : Español latino [CinemaniaHDD]
    Language                    : Spanish
    Default                     : No
    Forced                      : No
    Statistics Tags Issue       : mkvmerge v11.0.0 ('Alive') 64bit 2019-04-19 14:14:10 / mkvmerge v11.0.0 ('Alive') 64bit 2019-04-19 14:14:10 / UTC 2019-04-01 16:02:38
    FromStats_BitRate           : 50
    FromStats_Duration          : 02:46:53.840000000
    FromStats_FrameCount        : 1703
    FromStats_StreamSize        : 63726

    Text #2
    ID                          : 5
    Format                      : UTF-8
    Codec ID                    : S_TEXT/UTF8
    Codec ID/Info               : UTF-8 Plain Text
    Title                       : Forzados [CinemaniaHDD]
    Language                    : Spanish
    Default                     : Yes
    Forced                      : Yes
    Statistics Tags Issue       : mkvmerge v11.0.0 ('Alive') 64bit 2019-04-19 14:14:10 / mkvmerge v11.0.0 ('Alive') 64bit 2019-04-19 14:14:10 / UTC 2019-04-01 16:02:38
    FromStats_BitRate           : 0
    FromStats_Duration          : 02:46:53.840000000
    FromStats_FrameCount        : 17
    FromStats_StreamSize        : 416

  • Peso: 3.11 GiB

Sinopsis

Ficha técnica

  • Titulo original: A Fortunate Man
  • Fecha de lanzamiento: 30-08-2018 (Denmark)
  • Director: Bille August
  • Género: Drama, Peliculas Netflix
  • Puntuación: 0.0 0 votos
  • Duración:
    2h 42m

Video trailer de la película

Enlaces de descarga

Rip de Bluray

Descargar A Fortunate Man (2018) NF 1080p Latino




Aportes de DPeliculasHDmega la pass es:dpeliculashdmega.org Aportes de CinemaniaHD la pass es:cinemaniahdd.com
Guardado en : Drama , Peliculas Netflix

Películas relacionadas

Comentarios 0