×

¿Problemas para descargar con Mozilla, EDGE? Deshabilita la opción "Abrir vinculos en una pestaña nueva" tal como lo muestra ésta imagen.

A Dog’s Purpose (2017) REMUX 1080p Latino – CMHDD

183 vistas

Información de A Dog’s Purpose (2017) REMUX 1080p Latino – CMHDD

Datos de la película

  • Calidad: Full 1080p
  • Audio: Español Latino DTS 5.1 BLURAY - Ingles DTS 5.1 BLURAY
  • Subtitulos: Español Latino PGS
  • Resolución: 1920x1080p
  • Formato: MKV
  • Codec: H.264
  • Encoder: Dracarys
  • Mediainfo: Clic para Mostrar Datos Ver
  • Format                      : Matroska
    Format version              : Version 4
    File size                   : 25.6 GiB
    Duration                    : 1 h 40 min
    Overall bit rate mode       : Variable
    Overall bit rate            : 36.6 Mb/s
    Movie name                  : A Dog's Purpose (2017) REMUX 1080p Latino - CMHDD
    Encoded date                : UTC 2023-08-29 17:08:12
    Writing application         : mkvmerge v47.0.0 ('Black Flag') 64-bit
    Writing library             : libebml v1.3.10 + libmatroska v1.5.2
    Cover                       : Yes
    Attachments                 : cover.jpg

    Video
    ID                          : 1
    ID in the original source m : 4113 (0x1011)
    Format                      : AVC
    Format/Info                 : Advanced Video Codec
    Format profile              : High@L4.1
    Format settings             : CABAC / 4 Ref Frames
    Format settings, CABAC      : Yes
    Format settings, Reference  : 4 frames
    Codec ID                    : V_MPEG4/ISO/AVC
    Duration                    : 1 h 40 min
    Bit rate mode               : Variable
    Bit rate                    : 32.2 Mb/s
    Maximum bit rate            : 35.0 Mb/s
    Width                       : 1 920 pixels
    Height                      : 1 080 pixels
    Display aspect ratio        : 16:9
    Frame rate mode             : Constant
    Frame rate                  : 23.976 (24000/1001) FPS
    Color space                 : YUV
    Chroma subsampling          : 4:2:0
    Bit depth                   : 8 bits
    Scan type                   : Progressive
    Bits/(Pixel*Frame)          : 0.647
    Stream size                 : 22.5 GiB (88%)
    Default                     : Yes
    Forced                      : No
    Original source medium      : Blu-ray

    Audio #1
    ID                          : 2
    ID in the original source m : 4352 (0x1100)
    Format                      : DTS XLL
    Format/Info                 : Digital Theater Systems
    Commercial name             : DTS-HD Master Audio
    Codec ID                    : A_DTS
    Duration                    : 1 h 40 min
    Bit rate mode               : Variable
    Bit rate                    : 3 686 kb/s
    Channel(s)                  : 6 channels
    Channel layout              : C L R Ls Rs LFE
    Sampling rate               : 48.0 kHz
    Frame rate                  : 93.750 FPS (512 SPF)
    Bit depth                   : 24 bits
    Compression mode            : Lossless
    Stream size                 : 2.58 GiB (10%)
    Language                    : English
    Default                     : No
    Forced                      : No
    Original source medium      : Blu-ray

    Audio #2
    ID                          : 3
    ID in the original source m : 4353 (0x1101)
    Format                      : DTS
    Format/Info                 : Digital Theater Systems
    Codec ID                    : A_DTS
    Duration                    : 1 h 40 min
    Bit rate mode               : Constant
    Bit rate                    : 768 kb/s
    Channel(s)                  : 6 channels
    Channel layout              : C L R Ls Rs LFE
    Sampling rate               : 48.0 kHz
    Frame rate                  : 93.750 FPS (512 SPF)
    Bit depth                   : 24 bits
    Compression mode            : Lossy
    Stream size                 : 550 MiB (2%)
    Language                    : Spanish
    Default                     : Yes
    Forced                      : No
    Original source medium      : Blu-ray

    Text #1
    ID                          : 4
    ID in the original source m : 4609 (0x1201)
    Format                      : PGS
    Muxing mode                 : zlib
    Codec ID                    : S_HDMV/PGS
    Codec ID/Info               : Picture based subtitle format used on BDs/HD-DVDs
    Duration                    : 1 h 39 min
    Bit rate                    : 32.4 kb/s
    Frame rate                  : 0.519 FPS
    Count of elements           : 3090
    Stream size                 : 23.0 MiB (0%)
    Language                    : Spanish
    Default                     : No
    Forced                      : No
    Original source medium      : Blu-ray

    Text #2
    ID                          : 5
    ID in the original source m : 4611 (0x1203)
    Format                      : PGS
    Muxing mode                 : zlib
    Codec ID                    : S_HDMV/PGS
    Codec ID/Info               : Picture based subtitle format used on BDs/HD-DVDs
    Duration                    : 1 h 38 min
    Bit rate                    : 295 b/s
    Frame rate                  : 0.003 FPS
    Count of elements           : 18
    Stream size                 : 212 KiB (0%)
    Language                    : Spanish
    Default                     : Yes
    Forced                      : No
    Original source medium      : Blu-ray

    Menu
    00:00:00.000                : en:Capítulo 01
    00:04:39.779                : en:Capítulo 02
    00:08:54.408                : en:Capítulo 03
    00:14:10.307                : en:Capítulo 04
    00:17:46.482                : en:Capítulo 05
    00:22:38.607                : en:Capítulo 06
    00:28:33.002                : en:Capítulo 07
    00:33:45.481                : en:Capítulo 08
    00:37:26.702                : en:Capítulo 09
    00:42:16.116                : en:Capítulo 10
    00:48:31.533                : en:Capítulo 11
    00:51:24.247                : en:Capítulo 12
    00:56:04.736                : en:Capítulo 13
    01:01:12.669                : en:Capítulo 14
    01:05:40.311                : en:Capítulo 15
    01:12:03.068                : en:Capítulo 16
    01:16:24.496                : en:Capítulo 17
    01:21:07.988                : en:Capítulo 18
    01:27:57.939                : en:Capítulo 19
    01:33:40.615                : en:Capítulo 20

  • Peso: 25.6 GiB

Sinopsis

Toby es un perro que se pregunta el sentido de su vida cuando, sorprendido, se da cuenta de que se ha reencarnado en un cachorrito. Así, a lo largo de sus vidas se cuestionará su sentido mientras ayuda a distintos dueños, pero siempre con el objetivo de encontrarse con el primero.

Ficha técnica

Video trailer de la película

Enlaces de descarga

Rip de Bluray

Descargar A Dog’s Purpose (2017) REMUX 1080p Latino – CMHDD


Aportes de DPeliculasHDmega la pass es:dpeliculashdmega.org Aportes de CinemaniaHD la pass es:cinemaniahdd.com Aportes recientes:cinemaniahdd.net
Guardado en : Aventura , Comedia , Drama , Familia , Fantasía

Películas relacionadas

descargar A Dog’s Purpose (2017) REMUX 1080p Latino – CMHDD Full 1080p 1080p gratis, A Dog’s Purpose (2017) REMUX 1080p Latino – CMHDD Full 1080p mega 1 link, A Dog’s Purpose (2017) REMUX 1080p Latino – CMHDD Full 1080p pelicula completa, descargar A Dog’s Purpose (2017) REMUX 1080p Latino – CMHDD Full 1080p gratis en mega.

A Dog’s Purpose (2017) REMUX 1080p Latino – CMHDD pelicula full hd, A Dog’s Purpose (2017) REMUX 1080p Latino – CMHDD mega latino, A Dog’s Purpose (2017) REMUX 1080p Latino – CMHDD 4k latino, A Dog’s Purpose (2017) REMUX 1080p Latino – CMHDD pelicula completa, A Dog’s Purpose (2017) REMUX 1080p Latino – CMHDD descargar gratis, descargar A Dog’s Purpose (2017) REMUX 1080p Latino – CMHDD pelicula latino, A Dog’s Purpose (2017) REMUX 1080p Latino – CMHDD 1 link mega, A Dog’s Purpose (2017) REMUX 1080p Latino – CMHDD 1 link google drive, A Dog’s Purpose (2017) REMUX 1080p Latino – CMHDD hd 1080p latino.
Comentarios 0