A Demon Within (2017) 1080p WEB-DL Latino

1.309 vistas
1 estrella2 estrellas3 estrellas4 estrellas5 estrellas (1 votos, promedio: 5,00 de 5)
Cargando...

Información de A Demon Within (2017) 1080p WEB-DL Latino

Datos de la película

  • Calidad: WEBDL
  • Audio: Español Latino AC3 2.0 DVD - Ingles AC3 5.1 iTunes
  • Subtitulos: Español Latino SRT- FORZADOS SRT
  • Resolución: 1908x796
  • Formato: MKV
  • Codec: H.264
  • Encoder: Chesse92
  • Mediainfo: Clic para Mostrar Datos Ver
  • A Demon Within (2017) 1080p WEB-DL Latino.mkv
    Format                      : Matroska
    Format version              : Version 4
    File size                   : 3.35 GiB
    Duration                    : 1 h 31 min
    Overall bit rate            : 5 254 kb/s
    Movie name                  : CinemaniaHDD.Net
    Encoded date                : UTC 2019-03-06 04:29:54
    Writing application         : mkvmerge v30.1.0 ('Forever And More') 64-bit
    Writing library             : libebml v1.3.6 + libmatroska v1.4.9

    Video
    ID                          : 1
    Format                      : AVC
    Format/Info                 : Advanced Video Codec
    Format profile              : High@L4
    Format settings             : CABAC / 5 Ref Frames
    Format settings, CABAC      : Yes
    Format settings, ReFrames   : 5 frames
    Codec ID                    : V_MPEG4/ISO/AVC
    Duration                    : 1 h 31 min
    Bit rate                    : 4 612 kb/s
    Width                       : 1 908 pixels
    Height                      : 796 pixels
    Display aspect ratio        : 2.40:1
    Frame rate mode             : Constant
    Frame rate                  : 23.976 (24000/1001) FPS
    Color space                 : YUV
    Chroma subsampling          : 4:2:0
    Bit depth                   : 8 bits
    Scan type                   : Progressive
    Bits/(Pixel*Frame)          : 0.127
    Stream size                 : 2.94 GiB (88%)
    Language                    : English
    Default                     : Yes
    Forced                      : No
    Color range                 : Limited
    Color primaries             : BT.709
    Transfer characteristics    : BT.709
    Matrix coefficients         : BT.709

    Audio #1
    ID                          : 2
    Format                      : AC-3
    Format/Info                 : Audio Coding 3
    Commercial name             : Dolby Digital
    Codec ID                    : A_AC3
    Duration                    : 1 h 31 min
    Bit rate mode               : Constant
    Bit rate                    : 256 kb/s
    Channel(s)                  : 2 channels
    Channel layout              : L R
    Sampling rate               : 48.0 kHz
    Frame rate                  : 31.250 FPS (1536 SPF)
    Bit depth                   : 16 bits
    Compression mode            : Lossy
    Stream size                 : 167 MiB (5%)
    Title                       : CinemaniaHDD.Net
    Language                    : Spanish
    Service kind                : Complete Main
    Default                     : Yes
    Forced                      : No

    Audio #2
    ID                          : 3
    Format                      : AC-3
    Format/Info                 : Audio Coding 3
    Commercial name             : Dolby Digital
    Codec ID                    : A_AC3
    Duration                    : 1 h 31 min
    Bit rate mode               : Constant
    Bit rate                    : 384 kb/s
    Channel(s)                  : 6 channels
    Channel layout              : L R C LFE Ls Rs
    Sampling rate               : 48.0 kHz
    Frame rate                  : 31.250 FPS (1536 SPF)
    Bit depth                   : 16 bits
    Compression mode            : Lossy
    Stream size                 : 250 MiB (7%)
    Title                       : CinemaniaHDD.Net
    Language                    : English
    Service kind                : Complete Main
    Default                     : No
    Forced                      : No

    Text #1
    ID                          : 4
    Format                      : UTF-8
    Codec ID                    : S_TEXT/UTF8
    Codec ID/Info               : UTF-8 Plain Text
    Duration                    : 1 h 24 min
    Bit rate                    : 0 b/s
    Count of elements           : 6
    Stream size                 : 173 Bytes (0%)
    Title                       : Forzado - CinemaniaHDD.Net
    Language                    : Spanish
    Default                     : Yes
    Forced                      : Yes

    Text #2
    ID                          : 5
    Format                      : UTF-8
    Codec ID                    : S_TEXT/UTF8
    Codec ID/Info               : UTF-8 Plain Text
    Duration                    : 1 h 25 min
    Bit rate                    : 44 b/s
    Count of elements           : 789
    Stream size                 : 27.7 KiB (0%)
    Title                       : CinemaniaHDD.Net
    Language                    : Spanish
    Default                     : No
    Forced                      : No

  • Peso: 3.35 GiB

Sinopsis

Un médico de un pequeño pueblo se verá obligado a afrontar sus demonios personales para salvar a una niña que ha sido poseída.

Ficha técnica

  • Titulo original: A Demon Within
  • Fecha de lanzamiento: 03-04-2017 (United States of America)
  • Director: Ayush Banker, Justin LaReau
  • Género: Terror
  • Puntuación: 5.0 1 votos
  • Duración:
    1h 31m

Video trailer de la película

Enlaces de descarga

Rip de Bluray

Descargar A Demon Within (2017) 1080p WEB-DL Latino




Aportes de DPeliculasHDmega la pass es:dpeliculashdmega.org Aportes de CinemaniaHD la pass es:cinemaniahdd.com
Guardado en : Terror

Películas relacionadas

  • #Vivo (2020) NF WEB-DL 1080p Latino

    #Vivo (2020) NF WEB-DL 1080p Latino

    2020
    #Vivo (2020) NF WEB-DL 1080p Latino

    5.0 1h 38m 2020

    La rápida propagación de una infección desconocida provoca el caos absoluto en una ciudad. Sin embargo,...

    Director: Il Cho

    Género: Acción

    Actores: Yoo Ah-in

  • Get Duked! (2019) AMZN 4K-WEB-DL 2160p Latino

    Get Duked! (2019) AMZN 4K-WEB-DL 2160p Latino

    2019
    Get Duked! (2019) AMZN 4K-WEB-DL 2160p Latino

    5.0 1h 27m 2019

    Ubicado en las Tierras Altas de Escocia, Get Duked! es un cóctel anárquico de política generacional,...

    Director: Ninian Doff

    Género: Acción

    Actores: Viraj Juneja

  • Get Duked! (2019) AMZN WEB-DL 1080p Latino

    Get Duked! (2019) AMZN WEB-DL 1080p Latino

    2019
    Get Duked! (2019) AMZN WEB-DL 1080p Latino

    5.0 1h 27m 2019

    Ubicado en las Tierras Altas de Escocia, Get Duked! es un cóctel anárquico de política generacional,...

    Director: Ninian Doff

    Género: Acción

    Actores: Viraj Juneja

Comentarios 0