×

¿Problemas para descargar con Mozilla, EDGE? Deshabilita la opción "Abrir vinculos en una pestaña nueva" tal como lo muestra ésta imagen.

Un método peligroso (2011) Full HD 1080p Latino-CMHDD

18 vistas

Información de Un método peligroso (2011) Full HD 1080p Latino-CMHDD

Datos de la película

  • Calidad: Full 1080p
  • Audio: Español Latino AC3 5.1 BLURAY - Ingles DTS 5.1 BLURAY
  • Subtitulos: Español Latino PGS
  • Resolución: 1920x1080p
  • Formato: MKV
  • Codec: H.264
  • Encoder: CinefiloCool
  • Mediainfo: Clic para Mostrar Datos Ver
  • A.Dangerous.Method.2011.Bluray.FullHD.1080p.x264.Latino-CC@CMHDD.mkv
    Format                      : Matroska
    Format version              : Version 4
    File size                   : 6.20 GiB
    Duration                    : 1 h 39 min
    Overall bit rate            : 8 939 kb/s
    Movie name                  : A dangerous method (2011) CinemaniaHDD.Net
    Encoded date                : UTC 2024-02-11 04:28:12
    Writing application         : mkvmerge v56.1.0 ('My Friend') 64-bit
    Writing library             : libebml v1.4.2 + libmatroska v1.6.4
    Cover                       : Yes
    Attachments                 : cover.png / CINEMANIAHD.png

    Video
    ID                          : 1
    Format                      : AVC
    Format/Info                 : Advanced Video Codec
    Format profile              : High@L4.1
    Format settings             : CABAC / 4 Ref Frames
    Format settings, CABAC      : Yes
    Format settings, Reference  : 4 frames
    Codec ID                    : V_MPEG4/ISO/AVC
    Duration                    : 1 h 39 min
    Bit rate                    : 6 972 kb/s
    Width                       : 1 920 pixels
    Height                      : 1 080 pixels
    Display aspect ratio        : 16:9
    Frame rate mode             : Constant
    Frame rate                  : 24.000 FPS
    Color space                 : YUV
    Chroma subsampling          : 4:2:0
    Bit depth                   : 8 bits
    Scan type                   : Progressive
    Bits/(Pixel*Frame)          : 0.140
    Stream size                 : 4.83 GiB (78%)
    Title                       : Full HD1080p [CinemaniaHDD]
    Writing library             : x264 core 163 r3059 b684ebe0
    Encoding settings           : cabac=1 / ref=4 / deblock=1:0:0 / analyse=0x3:0x133 / me=tesa / subme=11 / psy=1 / psy_rd=1.00:0.00 / mixed_ref=1 / me_range=24 / chroma_me=1 / trellis=2 / 8x8dct=1 / cqm=0 / deadzone=21,11 / fast_pskip=0 / chroma_qp_offset=-2 / threads=24 / lookahead_threads=6 / sliced_threads=0 / nr=0 / decimate=1 / interlaced=0 / bluray_compat=0 / constrained_intra=0 / bframes=16 / b_pyramid=2 / b_adapt=2 / b_bias=0 / direct=3 / weightb=1 / open_gop=0 / weightp=2 / keyint=240 / keyint_min=24 / scenecut=40 / intra_refresh=0 / rc_lookahead=60 / rc=crf / mbtree=1 / crf=20.0 / qcomp=0.60 / qpmin=0 / qpmax=69 / qpstep=4 / vbv_maxrate=62500 / vbv_bufsize=78125 / crf_max=0.0 / nal_hrd=none / filler=0 / ip_ratio=1.40 / aq=1:1.00
    Default                     : Yes
    Forced                      : Yes
    Color range                 : Limited
    Color primaries             : BT.709
    Transfer characteristics    : BT.709
    Matrix coefficients         : BT.709

    Audio #1
    ID                          : 2
    Format                      : AC-3
    Format/Info                 : Audio Coding 3
    Commercial name             : Dolby Digital
    Codec ID                    : A_AC3
    Duration                    : 1 h 39 min
    Bit rate mode               : Constant
    Bit rate                    : 448 kb/s
    Channel(s)                  : 6 channels
    Channel layout              : L R C LFE Ls Rs
    Sampling rate               : 48.0 kHz
    Frame rate                  : 31.250 FPS (1536 SPF)
    Compression mode            : Lossy
    Stream size                 : 318 MiB (5%)
    Title                       : Español Latino [CinemaniaHDD]
    Language                    : Spanish
    Service kind                : Complete Main
    Default                     : No
    Forced                      : Yes

    Audio #2
    ID                          : 3
    Format                      : DTS
    Format/Info                 : Digital Theater Systems
    Codec ID                    : A_DTS
    Duration                    : 1 h 39 min
    Bit rate mode               : Constant
    Bit rate                    : 1 509 kb/s
    Channel(s)                  : 6 channels
    Channel layout              : C L R Ls Rs LFE
    Sampling rate               : 48.0 kHz
    Frame rate                  : 93.750 FPS (512 SPF)
    Bit depth                   : 24 bits
    Compression mode            : Lossy
    Stream size                 : 1.05 GiB (17%)
    Title                       : Ingles [CinemaniaHDD]
    Language                    : English
    Default                     : Yes
    Forced                      : Yes

    Text #1
    ID                          : 4
    Format                      : PGS
    Muxing mode                 : zlib
    Codec ID                    : S_HDMV/PGS
    Codec ID/Info               : Picture based subtitle format used on BDs/HD-DVDs
    Duration                    : 1 h 33 min
    Bit rate                    : 26.3 kb/s
    Count of elements           : 2336
    Stream size                 : 17.5 MiB (0%)
    Title                       : Español-PGS [CinemaniaHDD]
    Language                    : Spanish
    Default                     : No
    Forced                      : No

    Text #2
    ID                          : 5
    Format                      : UTF-8
    Codec ID                    : S_TEXT/UTF8
    Codec ID/Info               : UTF-8 Plain Text
    Duration                    : 1 h 29 min
    Bit rate                    : 64 b/s
    Count of elements           : 1142
    Stream size                 : 42.5 KiB (0%)
    Title                       : Ingles [CinemaniaHDD]
    Language                    : English
    Default                     : No
    Forced                      : No

    Text #3
    ID                          : 6
    Format                      : UTF-8
    Codec ID                    : S_TEXT/UTF8
    Codec ID/Info               : UTF-8 Plain Text
    Duration                    : 1 h 32 min
    Bit rate                    : 1 b/s
    Count of elements           : 18
    Stream size                 : 978 Bytes (0%)
    Title                       : Forzados-SRT [CinemaniaHDD]
    Language                    : Spanish
    Default                     : Yes
    Forced                      : Yes

    Text #4
    ID                          : 7
    Format                      : UTF-8
    Codec ID                    : S_TEXT/UTF8
    Codec ID/Info               : UTF-8 Plain Text
    Duration                    : 1 h 32 min
    Bit rate                    : 59 b/s
    Count of elements           : 1119
    Stream size                 : 40.3 KiB (0%)
    Title                       : Español-SRT [CinemaniaHDD]
    Language                    : Spanish
    Default                     : No
    Forced                      : No

    Menu
    00:00:00.000                : Chapter 01
    00:14:00.041                : Chapter 02
    00:27:10.333                : Chapter 03
    00:41:15.416                : Chapter 04
    00:55:10.541                : Chapter 05
    01:07:57.916                : Chapter 06
    01:22:25.791                : Chapter 07
    01:35:11.958                : Chapter 08

  • Peso: 6.20 GiB

Sinopsis

Descargar Un método peligroso (2011) Full HD 1080p Latino-CMHDD. El joven psicoanalista Carl Jung comienza un tratamiento innovador en la histérica Sabina Spielrein, bajo la dirección de su maestro, Sigmund Freud. Dispuesto a penetrar más profundamente en los misterios de la mente humana, Jung descubre que algunas de sus ideas chocan con las teorías de Freud, al mismo tiempo que sucumbe a un romance emocionante y peligroso con la bella Sabina.

Ficha técnica

Video trailer de la película

Enlaces de descarga

Rip de Bluray

Descargar Un método peligroso (2011) Full HD 1080p Latino-CMHDD




Aportes de DPeliculasHDmega la pass es:dpeliculashdmega.org Aportes de CinemaniaHD la pass es:cinemaniahdd.com Aportes recientes:cinemaniahdd.net

Películas relacionadas

  • Naturaleza Humana (2022) REMUX 1080p Latino

    Naturaleza Humana (2022) REMUX 1080p Latino

    2022
    Naturaleza Humana (2022) REMUX 1080p Latino

    1h 31m 2022

    Descargar Naturaleza Humana (2022) REMUX 1080p Latino. Una historia sobre la mayoría de edad contada...

    Director: Louie Gibson

    Género: Drama

    Actores: Tim Heidecker

  • Wonka (2023) Full HD 1080p Latino-CMHDD

    Wonka (2023) Full HD 1080p Latino-CMHDD

    2023
    Wonka (2023) Full HD 1080p Latino-CMHDD

    1h 57m 2023

    Descargar Wonka (2023) Full HD 1080p Latino-CMHDD. Basada en el personaje que protagoniza "Charlie y...

    Director: Zoe Morgan

    Género: Comedia

    Actores: Tracy Ifeachor

descargar Un método peligroso (2011) Full HD 1080p Latino-CMHDD Full 1080p 1080p gratis, Un método peligroso (2011) Full HD 1080p Latino-CMHDD Full 1080p mega 1 link, Un método peligroso (2011) Full HD 1080p Latino-CMHDD Full 1080p pelicula completa, descargar Un método peligroso (2011) Full HD 1080p Latino-CMHDD Full 1080p gratis en mega.

Un método peligroso (2011) Full HD 1080p Latino-CMHDD pelicula full hd, Un método peligroso (2011) Full HD 1080p Latino-CMHDD mega latino, Un método peligroso (2011) Full HD 1080p Latino-CMHDD 4k latino, Un método peligroso (2011) Full HD 1080p Latino-CMHDD pelicula completa, Un método peligroso (2011) Full HD 1080p Latino-CMHDD descargar gratis, descargar Un método peligroso (2011) Full HD 1080p Latino-CMHDD pelicula latino, Un método peligroso (2011) Full HD 1080p Latino-CMHDD 1 link mega, Un método peligroso (2011) Full HD 1080p Latino-CMHDD 1 link google drive, Un método peligroso (2011) Full HD 1080p Latino-CMHDD hd 1080p latino.
Comentarios 0