×

¿Problemas para descargar con Mozilla, EDGE? Deshabilita la opción "Abrir vinculos en una pestaña nueva" tal como lo muestra ésta imagen.

A Cinderella Story (2004) Full HD 1080p Latino – CMHDD

211 vistas

Información de A Cinderella Story (2004) Full HD 1080p Latino – CMHDD

Datos de la película

  • Calidad: Full 1080p
  • Audio: Español Latino AC3 5.1 BLURAY - Ingles DTS 5.1 BLURAY
  • Subtitulos: Español Latino SRT
  • Resolución: 1920x1080p
  • Formato: MKV
  • Codec: H.264
  • Encoder: Dracarys
  • Mediainfo: Clic para Mostrar Datos Ver
  • Format                      : Matroska
    Format version              : Version 4
    File size                   : 9.71 GiB
    Duration                    : 1 h 35 min
    Overall bit rate mode       : Variable
    Overall bit rate            : 14.6 Mb/s
    Movie name                  : A Cinderella Story (2004) Full HD 1080p Latino - CMHDD
    Encoded date                : UTC 2021-05-26 03:05:15
    Writing application         : mkvmerge v56.1.0 ('My Friend') 64-bit
    Writing library             : libebml v1.4.2 + libmatroska v1.6.4

    Video
    ID                          : 1
    Format                      : AVC
    Format/Info                 : Advanced Video Codec
    Format profile              : High@L4.1
    Format settings             : CABAC / 4 Ref Frames
    Format settings, CABAC      : Yes
    Format settings, Reference  : 4 frames
    Codec ID                    : V_MPEG4/ISO/AVC
    Duration                    : 1 h 35 min
    Bit rate                    : 9 975 kb/s
    Width                       : 1 920 pixels
    Height                      : 1 080 pixels
    Display aspect ratio        : 16:9
    Frame rate mode             : Constant
    Frame rate                  : 23.976 (24000/1001) FPS
    Color space                 : YUV
    Chroma subsampling          : 4:2:0
    Bit depth                   : 8 bits
    Scan type                   : Progressive
    Bits/(Pixel*Frame)          : 0.201
    Stream size                 : 6.63 GiB (68%)
    Writing library             : x264 core 157 r2935 545de2f
    Encoding settings           : cabac=1 / ref=4 / deblock=1:0:0 / analyse=0x3:0x133 / me=tesa / subme=11 / psy=1 / psy_rd=1.00:0.00 / mixed_ref=1 / me_range=24 / chroma_me=1 / trellis=2 / 8x8dct=1 / cqm=0 / deadzone=21,11 / fast_pskip=0 / chroma_qp_offset=-2 / threads=24 / lookahead_threads=6 / sliced_threads=0 / nr=0 / decimate=1 / interlaced=0 / bluray_compat=0 / constrained_intra=0 / bframes=16 / b_pyramid=2 / b_adapt=2 / b_bias=0 / direct=3 / weightb=1 / open_gop=0 / weightp=2 / keyint=240 / keyint_min=24 / scenecut=40 / intra_refresh=0 / rc_lookahead=60 / rc=crf / mbtree=1 / crf=20.0 / qcomp=0.60 / qpmin=0 / qpmax=69 / qpstep=4 / vbv_maxrate=62500 / vbv_bufsize=78125 / crf_max=0.0 / nal_hrd=none / filler=0 / ip_ratio=1.40 / aq=1:1.00
    Default                     : Yes
    Forced                      : No
    Color range                 : Limited
    Color primaries             : BT.709
    Transfer characteristics    : BT.709
    Matrix coefficients         : BT.709

    Audio #1
    ID                          : 2
    Format                      : AC-3
    Format/Info                 : Audio Coding 3
    Commercial name             : Dolby Digital
    Codec ID                    : A_AC3
    Duration                    : 1 h 35 min
    Bit rate mode               : Constant
    Bit rate                    : 384 kb/s
    Channel(s)                  : 6 channels
    Channel layout              : L R C LFE Ls Rs
    Sampling rate               : 48.0 kHz
    Frame rate                  : 31.250 FPS (1536 SPF)
    Compression mode            : Lossy
    Delay relative to video     : 2 s 0 ms
    Stream size                 : 261 MiB (3%)
    Language                    : Spanish
    Service kind                : Complete Main
    Default                     : Yes
    Forced                      : No

    Audio #2
    ID                          : 3
    Format                      : DTS XLL
    Format/Info                 : Digital Theater Systems
    Commercial name             : DTS-HD Master Audio
    Codec ID                    : A_DTS
    Duration                    : 1 h 35 min
    Bit rate mode               : Variable
    Bit rate                    : 4 233 kb/s
    Channel(s)                  : 6 channels
    Channel layout              : C L R Ls Rs LFE
    Sampling rate               : 48.0 kHz
    Frame rate                  : 93.750 FPS (512 SPF)
    Bit depth                   : 24 bits
    Compression mode            : Lossless
    Stream size                 : 2.81 GiB (29%)
    Language                    : English
    Default                     : No
    Forced                      : No

    Text
    ID                          : 4
    Format                      : UTF-8
    Codec ID                    : S_TEXT/UTF8
    Codec ID/Info               : UTF-8 Plain Text
    Duration                    : 1 h 30 min
    Bit rate                    : 61 b/s
    Count of elements           : 1059
    Stream size                 : 40.3 KiB (0%)
    Language                    : Spanish
    Default                     : No
    Forced                      : No

    Menu
    00:00:00.000                : :Chapter 1
    00:05:47.055                : :Chapter 2
    00:08:43.648                : :Chapter 3
    00:13:39.652                : :Chapter 4
    00:17:53.364                : :Chapter 5
    00:21:50.851                : :Chapter 6
    00:25:01.583                : :Chapter 7
    00:29:00.322                : :Chapter 8
    00:31:19.461                : :Chapter 9
    00:34:04.876                : :Chapter 10
    00:39:29.659                : :Chapter 11
    00:40:59.040                : :Chapter 12
    00:44:28.749                : :Chapter 13
    00:47:32.141                : :Chapter 14
    00:52:06.957                : :Chapter 15
    00:54:44.114                : :Chapter 16
    00:58:42.519                : :Chapter 17
    01:01:23.388                : :Chapter 18
    01:05:02.607                : :Chapter 19
    01:08:29.230                : :Chapter 20
    01:12:56.455                : :Chapter 21
    01:15:48.377                : :Chapter 22
    01:19:02.321                : :Chapter 23
    01:22:35.242                : :Chapter 24
    01:27:31.955                : :Chapter 25
    01:31:02.540                : :Chapter 26

  • Peso: 9.71 GiB

Sinopsis

Adaptación moderna del famoso cuento de «Cenicienta». La adolescente Sam Montgomery vive a disposición de su egocéntrica madrastra Fiona y de sus odiosas hermanastras, quienes la tratan más como una sirvienta que como un miembro de la familia. Sam sueña con ingresar en Princeton, pero de pronto su vida social se complica cuando conoce a su Príncipe Azul en Internet. Pero cuando su amigo de la red termina siendo el chico más popular de la escuela, Austin Ames, Sam despierta a la realidad olvidando su móvil cuando suena la medianoche. Temiendo ser rechazada si él supiera quien es ella en realidad, Sam hace todo lo posible para que Austin no descubra quién es su princesa. Aunque Austin tiene un plan para encontrarla…

Ficha técnica

  • Titulo original: A Cinderella Story
  • Fecha de lanzamiento: 10-07-2004 (Canada, United States of America)
  • Director: Mark Rosman, Robin Anderson
  • Género: Comedia

Video trailer de la película

Enlaces de descarga

Rip de Bluray

Descargar A Cinderella Story (2004) Full HD 1080p Latino – CMHDD




Aportes de DPeliculasHDmega la pass es:dpeliculashdmega.org Aportes de CinemaniaHD la pass es:cinemaniahdd.com
Guardado en : Comedia

Películas relacionadas

  • DC Liga De Supermascotas (2022) HD 1080p Latino

    DC Liga De Supermascotas (2022) HD 1080p Latino

    2022
    DC Liga De Supermascotas (2022) HD 1080p Latino

    1h 45m 2022

    Descargar DC Liga De Supermascotas (2022) HD 1080p Latino. Krypto el Superperro y Superman son amigos...

    Director: Sam Levine

    Género: Acción

    Actores: Yvette Nicole Brown

  • Rick and Morty (2022) Temporada 6 WEB-DL 1080p Latino

    Rick and Morty (2022) Temporada 6 WEB-DL 1080p Latino

    2013
    Rick and Morty (2022) Temporada 6 WEB-DL 1080p Latino

    0h 22m 2013

    Comedia animada que narra las aventuras de un científico loco Rick Sánchez, que regresa después de...

    Director: Justin Roiland

    Género: Action & Adventure

    Actores: Spencer Grammer

  • Tremors (1990) REMUX 4K HDR Latino – CMHDD

    Tremors (1990) REMUX 4K HDR Latino – CMHDD

    1990
    Tremors (1990) REMUX 4K HDR Latino – CMHDD

    1h 35m 1990

    En Perfección, un pequeño pueblo al borde del desierto de Nevada, algo parece suceder debajo de la...

    Director: Susan Bierbaum

    Género: Acción

    Actores: Victor Wong

descargar A Cinderella Story (2004) Full HD 1080p Latino – CMHDD Full 1080p 1080p gratis, A Cinderella Story (2004) Full HD 1080p Latino – CMHDD Full 1080p mega 1 link, A Cinderella Story (2004) Full HD 1080p Latino – CMHDD Full 1080p pelicula completa, descargar A Cinderella Story (2004) Full HD 1080p Latino – CMHDD Full 1080p gratis en mega.

A Cinderella Story (2004) Full HD 1080p Latino – CMHDD pelicula full hd, A Cinderella Story (2004) Full HD 1080p Latino – CMHDD mega latino, A Cinderella Story (2004) Full HD 1080p Latino – CMHDD 4k latino, A Cinderella Story (2004) Full HD 1080p Latino – CMHDD pelicula completa, A Cinderella Story (2004) Full HD 1080p Latino – CMHDD descargar gratis, descargar A Cinderella Story (2004) Full HD 1080p Latino – CMHDD pelicula latino, A Cinderella Story (2004) Full HD 1080p Latino – CMHDD 1 link mega, A Cinderella Story (2004) Full HD 1080p Latino – CMHDD 1 link google drive, A Cinderella Story (2004) Full HD 1080p Latino – CMHDD hd 1080p latino.
Comentarios 0