×

¿Problemas para descargar con Mozilla, EDGE? Deshabilita la opción "Abrir vinculos en una pestaña nueva" tal como lo muestra ésta imagen.

A Ciegas (2021) REMUX 1080p Latino

26 vistas

Información de A Ciegas (2021) REMUX 1080p Latino

Datos de la película

  • Calidad: Full 1080p
  • Audio: Español Latino AC3 5.1 WEB-DL - Ingles DTS 5.1 BLURAY
  • Subtitulos: Español Latino SRT- FORZADOS SRT
  • Resolución: 1920x1080p
  • Formato: MKV
  • Codec: H.264
  • Encoder: Melkor
  • Mediainfo: Clic para Mostrar Datos Ver
  • A Ciegas (2021) REMUX 1080p Latino.mkv
    Format                      : Matroska
    Format version              : Version 4
    File size                   : 14.8 GiB
    Duration                    : 1 h 32 min
    Overall bit rate mode       : Variable
    Overall bit rate            : 22.8 Mb/s
    Movie name                  : See For Me (2021) CinemaniaHDD.Net
    Encoded date                : UTC 2022-09-15 21:27:05
    Writing application         : mkvmerge v56.1.0 ('My Friend') 64-bit
    Writing library             : libebml v1.4.2 + libmatroska v1.6.4
    Attachments                 : CINEMANIAHD.png

    Video
    ID                          : 1
    Format                      : AVC
    Format/Info                 : Advanced Video Codec
    Format profile              : High@L4.1
    Format settings             : CABAC / 4 Ref Frames
    Format settings, CABAC      : Yes
    Format settings, Reference  : 4 frames
    Codec ID                    : V_MPEG4/ISO/AVC
    Duration                    : 1 h 32 min
    Bit rate mode               : Variable
    Bit rate                    : 20.0 Mb/s
    Maximum bit rate            : 38.0 Mb/s
    Width                       : 1 920 pixels
    Height                      : 1 080 pixels
    Display aspect ratio        : 16:9
    Frame rate mode             : Constant
    Frame rate                  : 24.000 FPS
    Standard                    : Component
    Color space                 : YUV
    Chroma subsampling          : 4:2:0
    Bit depth                   : 8 bits
    Scan type                   : Progressive
    Bits/(Pixel*Frame)          : 0.402
    Stream size                 : 13.0 GiB (88%)
    Title                       : REMUX HD1080p [CinemaniaHDD]
    Writing library             : x264 core 155
    Encoding settings           : cabac=1 / ref=4 / deblock=1:0:0 / analyse=0x3:0x113 / me=hex / subme=7 / psy=1 / psy_rd=1.00:0.00 / mixed_ref=1 / me_range=16 / chroma_me=1 / trellis=1 / 8x8dct=1 / cqm=1 / deadzone=21,11 / fast_pskip=1 / chroma_qp_offset=-2 / threads=24 / lookahead_threads=4 / sliced_threads=0 / slices=4 / nr=0 / decimate=1 / interlaced=0 / minigop=1 / stitchable=1 / constrained_intra=0 / bframes=3 / b_pyramid=0 / b_adapt=1 / b_bias=0 / direct=1 / weightb=1 / open_gop=1 / weightp=1 / keyint=24 / keyint_min=1 / scenecut=40 / intra_refresh=0 / rc_lookahead=24 / rc=2pass / mbtree=1 / bitrate=20000 / ratetol=1.0 / qcomp=0.60 / qpmin=3 / qpmax=69 / qpstep=4 / cplxblur=20.0 / qblur=0.5 / vbv_maxrate=38000 / vbv_bufsize=30000 / nal_hrd=vbr / filler=0 / ip_ratio=1.40 / aq=1:1.00
    Default                     : Yes
    Forced                      : Yes
    Color range                 : Limited
    Color primaries             : BT.709
    Transfer characteristics    : BT.709
    Matrix coefficients         : BT.709

    Audio #1
    ID                          : 2
    Format                      : AC-3
    Format/Info                 : Audio Coding 3
    Commercial name             : Dolby Digital
    Codec ID                    : A_AC3
    Duration                    : 1 h 32 min
    Bit rate mode               : Constant
    Bit rate                    : 448 kb/s
    Channel(s)                  : 6 channels
    Channel layout              : L R C LFE Ls Rs
    Sampling rate               : 48.0 kHz
    Frame rate                  : 31.250 FPS (1536 SPF)
    Compression mode            : Lossy
    Stream size                 : 298 MiB (2%)
    Title                       : Español Latino [CinemaniaHDD]
    Language                    : Spanish
    Service kind                : Complete Main
    Default                     : Yes
    Forced                      : Yes

    Audio #2
    ID                          : 3
    Format                      : DTS XLL
    Format/Info                 : Digital Theater Systems
    Commercial name             : DTS-HD Master Audio
    Codec ID                    : A_DTS
    Duration                    : 1 h 32 min
    Bit rate mode               : Variable
    Bit rate                    : 2 383 kb/s
    Channel(s)                  : 6 channels
    Channel layout              : C L R Ls Rs LFE
    Sampling rate               : 48.0 kHz
    Frame rate                  : 93.750 FPS (512 SPF)
    Bit depth                   : 24 bits
    Compression mode            : Lossless
    Stream size                 : 1.55 GiB (10%)
    Title                       : Ingles [CinemaniaHDD]
    Language                    : English
    Default                     : No
    Forced                      : No

    Text #1
    ID                          : 4
    Format                      : UTF-8
    Codec ID                    : S_TEXT/UTF8
    Codec ID/Info               : UTF-8 Plain Text
    Duration                    : 57 min 9 s
    Bit rate                    : 0 b/s
    Count of elements           : 3
    Stream size                 : 103 Bytes (0%)
    Title                       : Forzados-SRT [CinemaniaHDD]
    Language                    : Spanish
    Default                     : Yes
    Forced                      : Yes

    Text #2
    ID                          : 5
    Format                      : UTF-8
    Codec ID                    : S_TEXT/UTF8
    Codec ID/Info               : UTF-8 Plain Text
    Duration                    : 1 h 28 min
    Bit rate                    : 59 b/s
    Count of elements           : 1202
    Stream size                 : 38.3 KiB (0%)
    Title                       : Español-SRT [CinemaniaHDD]
    Language                    : Spanish
    Default                     : No
    Forced                      : No

    Text #3
    ID                          : 6
    Format                      : UTF-8
    Codec ID                    : S_TEXT/UTF8
    Codec ID/Info               : UTF-8 Plain Text
    Duration                    : 1 h 28 min
    Bit rate                    : 52 b/s
    Count of elements           : 1201
    Stream size                 : 34.1 KiB (0%)
    Title                       : Ingles [CinemaniaHDD]
    Language                    : English
    Default                     : No
    Forced                      : No

    Menu
    00:00:00.000                : Chapter 01
    00:08:53.417                : Chapter 02
    00:14:51.500                : Chapter 03
    00:20:12.833                : Chapter 04
    00:28:44.625                : Chapter 05
    00:35:05.625                : Chapter 06
    00:40:39.833                : Chapter 07
    00:49:19.542                : Chapter 08
    00:56:57.042                : Chapter 09
    01:03:17.958                : Chapter 10
    01:11:20.792                : Chapter 11
    01:19:34.375                : Chapter 12
    01:29:29.042                : Chapter 13

  • Peso: 14.8 GiB

Sinopsis

Descargar A Ciegas (2021) REMUX 1080p Latino. Cuando Sophie, una famosa esquiadora se queda ciega, su carrera se acaba y encuentra una ocupación dedicándose a cuidar gatos de familias que se ausentan de sus casas. Cuando se dedica a cuidar los gatos de una familia adinerada en una remota mansión, tres ladrones invaden el lugar para robar la caja fuerte de la casa. La única defensa de Sophie es Kelly, una veterana del ejército con la que ha contactado a través de la app See For Me. Kelly ayuda a Sophie a defenderse de los invasores y a sobrevivir.

Ficha técnica

Video trailer de la película

Enlaces de descarga

Rip de Bluray

Descargar A Ciegas (2021) REMUX 1080p Latino




Aportes de DPeliculasHDmega la pass es:dpeliculashdmega.org Aportes de CinemaniaHD la pass es:cinemaniahdd.com
Guardado en : Crimen , Drama , Misterio , Remux , Suspenso , Terror

Películas relacionadas

descargar A Ciegas (2021) REMUX 1080p Latino Full 1080p 1080p gratis, A Ciegas (2021) REMUX 1080p Latino Full 1080p mega 1 link, A Ciegas (2021) REMUX 1080p Latino Full 1080p pelicula completa, descargar A Ciegas (2021) REMUX 1080p Latino Full 1080p gratis en mega.

A Ciegas (2021) REMUX 1080p Latino pelicula full hd, A Ciegas (2021) REMUX 1080p Latino mega latino, A Ciegas (2021) REMUX 1080p Latino 4k latino, A Ciegas (2021) REMUX 1080p Latino pelicula completa, A Ciegas (2021) REMUX 1080p Latino descargar gratis, descargar A Ciegas (2021) REMUX 1080p Latino pelicula latino, A Ciegas (2021) REMUX 1080p Latino 1 link mega, A Ciegas (2021) REMUX 1080p Latino 1 link google drive, A Ciegas (2021) REMUX 1080p Latino hd 1080p latino.
Comentarios 0