A Christmas Prince: The Royal Baby (2019) NF WEB-DL 1080p Latino

527 vistas
1 estrella2 estrellas3 estrellas4 estrellas5 estrellas (1 votos, promedio: 5,00 de 5)
Cargando...

Información de A Christmas Prince: The Royal Baby (2019) NF WEB-DL 1080p Latino

Datos de la película

  • Calidad: WEBDL
  • Audio: Español Latino AC3 5.1 Netflix - Ingles AC3 5.1 Netflix
  • Subtitulos: Español Latino SRT- FORZADOS SRT
  • Resolución: 1920x1080
  • Formato: MKV
  • Codec: H.264
  • Encoder: cinemaniahdd
  • Mediainfo: Clic para Mostrar Datos Ver
  • Un príncipe de Navidad, Bebé real (2019) NF WEB-DL 1080p Latino.mkv
    Format                      : Matroska
    Format version              : Version 4
    File size                   : 3.52 GiB
    Duration                    : 1 h 25 min
    Overall bit rate mode       : Variable
    Overall bit rate            : 5 895 kb/s
    Movie name                  : Un príncipe de Navidad, Bebé real (2019) - CinemaniaHDD.Net
    Encoded date                : UTC 2019-12-05 08:09:13
    Writing application         : mkvmerge v38.0.0 ('The Silent Type') 64-bit
    Writing library             : libebml v1.3.9 + libmatroska v1.5.2

    Video
    ID                          : 1
    Format                      : AVC
    Format/Info                 : Advanced Video Codec
    Format profile              : Main@L4
    Format settings             : CABAC / 3 Ref Frames
    Format settings, CABAC      : Yes
    Format settings, ReFrames   : 3 frames
    Codec ID                    : V_MPEG4/ISO/AVC
    Duration                    : 1 h 25 min
    Bit rate mode               : Variable
    Bit rate                    : 5 360 kb/s
    Maximum bit rate            : 8 040 kb/s
    Width                       : 1 920 pixels
    Height                      : 1 080 pixels
    Display aspect ratio        : 16:9
    Frame rate mode             : Constant
    Frame rate                  : 23.976 (24000/1001) FPS
    Color space                 : YUV
    Chroma subsampling          : 4:2:0
    Bit depth                   : 8 bits
    Scan type                   : Progressive
    Bits/(Pixel*Frame)          : 0.108
    Stream size                 : 3.06 GiB (87%)
    Title                       : CinemaniaHDD
    Writing library             : x264 core 148 r2715 7e75228
    Encoding settings           : cabac=1 / ref=3 / deblock=1:0:0 / analyse=0x1:0x111 / me=umh / subme=10 / psy=1 / psy_rd=1.00:0.00 / mixed_ref=1 / me_range=24 / chroma_me=1 / trellis=2 / 8x8dct=0 / cqm=0 / deadzone=21,11 / fast_pskip=1 / chroma_qp_offset=-2 / threads=8 / lookahead_threads=1 / sliced_threads=0 / nr=0 / decimate=1 / interlaced=0 / bluray_compat=0 / stitchable=1 / constrained_intra=0 / bframes=2 / b_pyramid=0 / b_adapt=2 / b_bias=0 / direct=3 / weightb=1 / open_gop=0 / weightp=2 / keyint=250 / keyint_min=23 / scenecut=0 / intra_refresh=0 / rc_lookahead=48 / rc=2pass / mbtree=1 / bitrate=5360 / ratetol=1.0 / qcomp=0.50 / qpmin=6 / qpmax=51 / qpstep=4 / cplxblur=20.0 / qblur=0.5 / vbv_maxrate=8040 / vbv_bufsize=10720 / nal_hrd=vbr / filler=0 / ip_ratio=1.40 / aq=1:1.00
    Default                     : Yes
    Forced                      : No

    Audio #1
    ID                          : 2
    Format                      : AC-3
    Format/Info                 : Audio Coding 3
    Commercial name             : Dolby Digital
    Codec ID                    : A_AC3
    Duration                    : 1 h 25 min
    Bit rate mode               : Constant
    Bit rate                    : 384 kb/s
    Channel(s)                  : 6 channels
    Channel layout              : L R C LFE Ls Rs
    Sampling rate               : 48.0 kHz
    Frame rate                  : 31.250 FPS (1536 SPF)
    Bit depth                   : 16 bits
    Compression mode            : Lossy
    Stream size                 : 235 MiB (7%)
    Title                       : Español latino [CinemaniaHDD]
    Language                    : Spanish
    Service kind                : Complete Main
    Default                     : Yes
    Forced                      : No

    Audio #2
    ID                          : 3
    Format                      : AC-3
    Format/Info                 : Audio Coding 3
    Commercial name             : Dolby Digital
    Codec ID                    : A_AC3
    Duration                    : 1 h 25 min
    Bit rate mode               : Constant
    Bit rate                    : 384 kb/s
    Channel(s)                  : 6 channels
    Channel layout              : L R C LFE Ls Rs
    Sampling rate               : 48.0 kHz
    Frame rate                  : 31.250 FPS (1536 SPF)
    Bit depth                   : 16 bits
    Compression mode            : Lossy
    Stream size                 : 235 MiB (7%)
    Title                       : Inglés [CinemaniaHDD]
    Language                    : English
    Service kind                : Complete Main
    Default                     : No
    Forced                      : No

    Text #1
    ID                          : 4
    Format                      : UTF-8
    Codec ID                    : S_TEXT/UTF8
    Codec ID/Info               : UTF-8 Plain Text
    Duration                    : 1 h 24 min
    Bit rate                    : 0 b/s
    Count of elements           : 26
    Stream size                 : 540 Bytes (0%)
    Title                       : Forzados [CinemaniaHDD]
    Language                    : Spanish
    Default                     : Yes
    Forced                      : Yes

    Text #2
    ID                          : 5
    Format                      : UTF-8
    Codec ID                    : S_TEXT/UTF8
    Codec ID/Info               : UTF-8 Plain Text
    Duration                    : 1 h 24 min
    Bit rate                    : 68 b/s
    Count of elements           : 1372
    Stream size                 : 41.9 KiB (0%)
    Title                       : Español latino [CinemaniaHDD]
    Language                    : Spanish
    Default                     : No
    Forced                      : No

     

  • Peso: 3.52 GiB

Sinopsis

La Navidad trae el mejor regalo a Aldovia: un bebé real. Pero primero, la Reina Amber debe ayudar a su familia y reino al encontrar un tratado de paz perdido.

Ficha técnica

Video trailer de la película

Enlaces de descarga

Rip de Bluray

Descargar A Christmas Prince: The Royal Baby (2019) NF WEB-DL 1080p Latino




Aportes de DPeliculasHDmega la pass es:dpeliculashdmega.org Aportes de CinemaniaHD la pass es:cinemaniahdd.com
Guardado en : Netflix , Peliculas Netflix , Romance

Películas relacionadas

  • Hermosas Criaturas (2013) 1080p Latino

    Hermosas Criaturas (2013) 1080p Latino

    2013
    Hermosas Criaturas (2013) 1080p Latino

    0.0 2h 4m 2013

    Descargar Hermosas Criaturas (2013) 1080p Latino. El hastío domina la vida de Ethan Wate, un chico que...

    Director: Richard LaGravenese

    Género: Drama

    Actores: Zoey Deutch

  • Hermosas Criaturas (2013) Full HD 1080p Latino

    Hermosas Criaturas (2013) Full HD 1080p Latino

    2013
    Hermosas Criaturas (2013) Full HD 1080p Latino

    0.0 2h 4m 2013

    Descargar Hermosas Criaturas (2013) Full HD 1080p Latino. El hastío domina la vida de Ethan Wate, un...

    Director: Richard LaGravenese

    Género: Drama

    Actores: Zoey Deutch

  • Hermosas Criaturas (2013) REMUX 1080p Latino

    Hermosas Criaturas (2013) REMUX 1080p Latino

    2013
    Hermosas Criaturas (2013) REMUX 1080p Latino

    0.0 2h 4m 2013

    Descargar Hermosas Criaturas (2013) REMUX 1080p Latino. El hastío domina la vida de Ethan Wate, un chico...

    Director: Richard LaGravenese

    Género: Drama

    Actores: Zoey Deutch

  • La Luz Entre Los Océanos (2016) 1080p Latino

    La Luz Entre Los Océanos (2016) 1080p Latino

    2016
    La Luz Entre Los Océanos (2016) 1080p Latino

    0.0 2h 13m 2016

    Descargar La Luz Entre Los Océanos (2016) 1080p Latino. Australia, 1926. Un bote encalla en una isla...

    Director: Veronique Lawrence

    Género: Drama

    Actores: Thomas Unger

Comentarios 0