×

¿Problemas para descargar con Mozilla, EDGE? Deshabilita la opción "Abrir vinculos en una pestaña nueva" tal como lo muestra ésta imagen.

A Bug’s Life (1998) REMUX 4K HDR Latino – CMHDD

345 vistas

Información de A Bug’s Life (1998) REMUX 4K HDR Latino – CMHDD

Datos de la película

  • Calidad: 4K HDR
  • Audio: Español Latino AC3 5.1 BLURAY - Ingles DTS 5.1 BLURAY
  • Subtitulos: Español Latino PGS
  • Resolución: 3840x2160p
  • Formato: MKV
  • Codec: H.264
  • Encoder: Dracarys
  • Mediainfo: Clic para Mostrar Datos Ver
  • Format                      : Matroska
    Format version              : Version 4
    File size                   : 49.0 GiB
    Duration                    : 1 h 34 min
    Overall bit rate mode       : Variable
    Overall bit rate            : 73.9 Mb/s
    Movie name                  : A Bug's Life (1998) REMUX 4K HDR Latino - CMHDD
    Encoded date                : UTC 2022-04-27 04:19:35
    Writing application         : mkvmerge v17.0.0 ('Be Ur Friend') 64-bit
    Writing library             : libebml v1.3.5 + libmatroska v1.4.8

    Video
    ID                          : 1
    Format                      : HEVC
    Format/Info                 : High Efficiency Video Coding
    Format profile              : Main 10@L5.1@High
    HDR format                  : SMPTE ST 2086, HDR10 compatible
    Codec ID                    : V_MPEGH/ISO/HEVC
    Duration                    : 1 h 34 min
    Bit rate                    : 59.7 Mb/s
    Width                       : 3 840 pixels
    Height                      : 2 160 pixels
    Display aspect ratio        : 16:9
    Frame rate mode             : Constant
    Frame rate                  : 23.976 (23976/1000) FPS
    Original frame rate         : 23.976 (24000/1001) FPS
    Color space                 : YUV
    Chroma subsampling          : 4:2:0 (Type 2)
    Bit depth                   : 10 bits
    Bits/(Pixel*Frame)          : 0.300
    Stream size                 : 39.6 GiB (81%)
    Writing library             : ATEME Titan File 3.9.0 (4.9.0.0)        
    Default                     : Yes
    Forced                      : No
    Color range                 : Limited
    Color primaries             : BT.2020
    Transfer characteristics    : PQ
    Matrix coefficients         : BT.2020 non-constant
    Mastering display color pri : Display P3
    Mastering display luminance : min: 0.0000 cd/m2, max: 1000 cd/m2

    Audio #1
    ID                          : 2
    Format                      : MLP FBA 16-ch
    Format/Info                 : Meridian Lossless Packing FBA with 16-channel presentation
    Commercial name             : Dolby TrueHD with Dolby Atmos
    Codec ID                    : A_TRUEHD
    Duration                    : 1 h 34 min
    Bit rate mode               : Variable
    Bit rate                    : 8 178 kb/s
    Maximum bit rate            : 8 088 kb/s
    Channel(s)                  : 8 channels
    Channel layout              : L R C LFE Ls Rs Lb Rb
    Sampling rate               : 48.0 kHz
    Frame rate                  : 1 200.000 FPS (40 SPF)
    Compression mode            : Lossless
    Stream size                 : 5.42 GiB (11%)
    Language                    : English
    Default                     : No
    Forced                      : No
    Number of dynamic objects   : 13
    Bed channel count           : 1 channel
    Bed channel configuration   : LFE

    Audio #2
    ID                          : 3
    Format                      : AC-3
    Format/Info                 : Audio Coding 3
    Commercial name             : Dolby Digital
    Format settings             : Dolby Surround EX
    Codec ID                    : A_AC3
    Duration                    : 1 h 34 min
    Bit rate mode               : Constant
    Bit rate                    : 640 kb/s
    Channel(s)                  : 6 channels
    Channel layout              : L R C LFE Ls Rs
    Sampling rate               : 48.0 kHz
    Frame rate                  : 31.250 FPS (1536 SPF)
    Compression mode            : Lossy
    Stream size                 : 434 MiB (1%)
    Language                    : English
    Service kind                : Complete Main
    Default                     : No
    Forced                      : No

    Audio #3
    ID                          : 4
    Format                      : DTS ES XLL
    Format/Info                 : Digital Theater Systems
    Commercial name             : DTS-HD Master Audio
    Codec ID                    : A_DTS
    Duration                    : 1 h 34 min
    Bit rate mode               : Variable
    Bit rate                    : 4 617 kb/s
    Channel(s)                  : 6 channels
    Channel(s)_Original         : 7 channels
    ChannelLayout_Original      : C L R Ls Rs LFE Cs
    Sampling rate               : 48.0 kHz
    Frame rate                  : 93.750 FPS (512 SPF)
    Bit depth                   : 24 bits
    Compression mode            : Lossless
    Delay relative to video     : 667 ms
    Stream size                 : 3.06 GiB (6%)
    Language                    : English
    Default                     : No
    Forced                      : No

    Audio #4
    ID                          : 5
    Format                      : AC-3
    Format/Info                 : Audio Coding 3
    Commercial name             : Dolby Digital
    Codec ID                    : A_AC3
    Duration                    : 1 h 34 min
    Bit rate mode               : Constant
    Bit rate                    : 640 kb/s
    Channel(s)                  : 6 channels
    Channel layout              : L R C LFE Ls Rs
    Sampling rate               : 48.0 kHz
    Frame rate                  : 31.250 FPS (1536 SPF)
    Compression mode            : Lossy
    Delay relative to video     : 667 ms
    Stream size                 : 434 MiB (1%)
    Language                    : Spanish
    Service kind                : Complete Main
    Default                     : Yes
    Forced                      : No

    Text
    ID                          : 6
    Format                      : PGS
    Muxing mode                 : zlib
    Codec ID                    : S_HDMV/PGS
    Codec ID/Info               : Picture based subtitle format used on BDs/HD-DVDs
    Duration                    : 1 h 32 min
    Bit rate                    : 37.9 kb/s
    Count of elements           : 2436
    Stream size                 : 25.0 MiB (0%)
    Language                    : Spanish
    Default                     : No
    Forced                      : No

    Menu
    00:00:00.000                : en:Chapter 1
    00:04:29.143                : en:Chapter 2
    00:07:52.638                : en:Chapter 3
    00:09:52.633                : en:Chapter 4
    00:15:19.293                : en:Chapter 5
    00:17:19.830                : en:Chapter 6
    00:18:56.426                : en:Chapter 7
    00:20:05.162                : en:Chapter 8
    00:26:08.608                : en:Chapter 9
    00:27:49.584                : en:Chapter 10
    00:31:29.804                : en:Chapter 11
    00:32:43.669                : en:Chapter 12
    00:35:58.030                : en:Chapter 13
    00:39:42.880                : en:Chapter 14
    00:41:27.276                : en:Chapter 15
    00:45:09.039                : en:Chapter 16
    00:45:50.289                : en:Chapter 17
    00:47:17.334                : en:Chapter 18
    00:49:13.992                : en:Chapter 19
    00:52:51.293                : en:Chapter 20
    00:56:36.643                : en:Chapter 21
    00:58:49.859                : en:Chapter 22
    01:02:24.615                : en:Chapter 23
    01:04:27.655                : en:Chapter 24
    01:05:30.843                : en:Chapter 25
    01:06:47.670                : en:Chapter 26
    01:10:02.281                : en:Chapter 27
    01:10:49.745                : en:Chapter 28
    01:15:15.928                : en:Chapter 29
    01:17:29.978                : en:Chapter 30
    01:20:00.962                : en:Chapter 31
    01:21:13.576                : en:Chapter 32
    01:23:06.106                : en:Chapter 33
    01:24:16.593                : en:Chapter 34
    01:28:31.013                : en:Chapter 35
    01:29:56.599                : en:Chapter 36

  • Peso: 49.0 GiB

Sinopsis

Un grupo de saltamontes liderados por el malvado Hopper y su estúpido hermano Molt asedian la colonia de hormigas todos los veranos para hacerse con la comida almacenada para pasar el invierno. Flik, una hormiga cansada de seguir las reglas del grupo, decide abandonar la colonia en busca de un grupo de mercenarios que los defiendan. Por equivocación, Flik reclutará a una pandilla de artistas de circo.

Ficha técnica

Video trailer de la película

Enlaces de descarga

Rip de Bluray

Descargar A Bug’s Life (1998) REMUX 4K HDR Latino – CMHDD


Aportes de DPeliculasHDmega la pass es:dpeliculashdmega.org Aportes de CinemaniaHD la pass es:cinemaniahdd.com
Guardado en : Animación , Aventura , Comedia , Familia

Películas relacionadas

descargar A Bug’s Life (1998) REMUX 4K HDR Latino – CMHDD 4K HDR 1080p gratis, A Bug’s Life (1998) REMUX 4K HDR Latino – CMHDD 4K HDR mega 1 link, A Bug’s Life (1998) REMUX 4K HDR Latino – CMHDD 4K HDR pelicula completa, descargar A Bug’s Life (1998) REMUX 4K HDR Latino – CMHDD 4K HDR gratis en mega.

A Bug’s Life (1998) REMUX 4K HDR Latino – CMHDD pelicula full hd, A Bug’s Life (1998) REMUX 4K HDR Latino – CMHDD mega latino, A Bug’s Life (1998) REMUX 4K HDR Latino – CMHDD 4k latino, A Bug’s Life (1998) REMUX 4K HDR Latino – CMHDD pelicula completa, A Bug’s Life (1998) REMUX 4K HDR Latino – CMHDD descargar gratis, descargar A Bug’s Life (1998) REMUX 4K HDR Latino – CMHDD pelicula latino, A Bug’s Life (1998) REMUX 4K HDR Latino – CMHDD 1 link mega, A Bug’s Life (1998) REMUX 4K HDR Latino – CMHDD 1 link google drive, A Bug’s Life (1998) REMUX 4K HDR Latino – CMHDD hd 1080p latino.
Comentarios 0