A Bug’s Life (1996) WEB-DL 4K-HDR 2160p Latino

773 vistas
1 estrella2 estrellas3 estrellas4 estrellas5 estrellas (2 votos, promedio: 5,00 de 5)
Cargando...

Información de A Bug’s Life (1996) WEB-DL 4K-HDR 2160p Latino

Datos de la película

  • Calidad: 4K HDR
  • Audio: Se especifica abajo de la Sinopsis
  • Subtitulos: Español Latino SRT- FORZADOS SRT
  • Resolución: 3840x2160
  • Formato: MKV
  • Codec: H.265
  • Encoder: cinemaniahdd
  • Mediainfo: Clic para Mostrar Datos Ver
  • A Bug's Life (1996) WEB-DL 4K-HDR 2160p Latino.mkv
    Format                      : Matroska
    Format version              : Version 4
    File size                   : 11.5 GiB
    Duration                    : 1 h 37 min
    Overall bit rate            : 16.8 Mb/s
    Movie name                  : A Bug's Life (1996) - CinemaniaHDD.Net
    Encoded date                : UTC 2020-02-29 19:39:59
    Writing application         : mkvmerge v42.0.0 ('Overtime') 64-bit
    Writing library             : libebml v1.3.10 + libmatroska v1.5.2

    Video
    ID                          : 1
    Format                      : HEVC
    Format/Info                 : High Efficiency Video Coding
    Format profile              : Main 10@L5@High
    Codec ID                    : V_MPEGH/ISO/HEVC
    Duration                    : 1 h 37 min
    Bit rate                    : 15.9 Mb/s
    Width                       : 3 840 pixels
    Height                      : 2 160 pixels
    Display aspect ratio        : 16:9
    Frame rate mode             : Constant
    Frame rate                  : 23.976 (24000/1001) FPS
    Color space                 : YUV
    Chroma subsampling          : 4:2:0
    Bit depth                   : 10 bits
    Bits/(Pixel*Frame)          : 0.080
    Stream size                 : 10.9 GiB (95%)
    Title                       : CinemaniaHDD
    Default                     : Yes
    Forced                      : No
    Color range                 : Limited
    Color primaries             : BT.2020
    Transfer characteristics    : PQ
    Matrix coefficients         : BT.2020 non-constant

    Audio #1
    ID                          : 2
    Format                      : AC-3
    Format/Info                 : Audio Coding 3
    Commercial name             : Dolby Digital
    Codec ID                    : A_AC3
    Duration                    : 1 h 37 min
    Bit rate mode               : Constant
    Bit rate                    : 640 kb/s
    Channel(s)                  : 6 channels
    Channel layout              : L R C LFE Ls Rs
    Sampling rate               : 48.0 kHz
    Frame rate                  : 31.250 FPS (1536 SPF)
    Bit depth                   : 16 bits
    Compression mode            : Lossy
    Stream size                 : 448 MiB (4%)
    Title                       : Español latino [CinemaniaHDD]
    Language                    : Spanish
    Service kind                : Complete Main
    Default                     : Yes
    Forced                      : No

    Audio #2
    ID                          : 3
    Format                      : E-AC-3
    Format/Info                 : Enhanced AC-3
    Commercial name             : Dolby Digital Plus
    Codec ID                    : A_EAC3
    Duration                    : 1 h 37 min
    Bit rate mode               : Constant
    Bit rate                    : 256 kb/s
    Channel(s)                  : 6 channels
    Channel layout              : L R C LFE Ls Rs
    Sampling rate               : 48.0 kHz
    Frame rate                  : 31.250 FPS (1536 SPF)
    Compression mode            : Lossy
    Stream size                 : 179 MiB (2%)
    Title                       : Inglés [CinemaniaHDD]
    Language                    : English
    Service kind                : Complete Main
    Default                     : No
    Forced                      : No

    Text #1
    ID                          : 4
    Format                      : UTF-8
    Codec ID                    : S_TEXT/UTF8
    Codec ID/Info               : UTF-8 Plain Text
    Duration                    : 19 min 34 s
    Bit rate                    : 0 b/s
    Count of elements           : 2
    Stream size                 : 26.0 Bytes (0%)
    Title                       : Forzados [CinemaniaHDD]
    Language                    : Spanish
    Default                     : Yes
    Forced                      : Yes

    Text #2
    ID                          : 5
    Format                      : UTF-8
    Codec ID                    : S_TEXT/UTF8
    Codec ID/Info               : UTF-8 Plain Text
    Duration                    : 1 h 31 min
    Bit rate                    : 59 b/s
    Count of elements           : 1169
    Stream size                 : 39.6 KiB (0%)
    Title                       : Español latino [CinemaniaHDD]
    Language                    : Spanish
    Default                     : No
    Forced                      : No

     

  • Peso: 11.5 GiB

Sinopsis

Un grupo de saltamontes liderados por el malvado Hopper y su estúpido hermano Molt asedian la colonia de hormigas todos los veranos para hacerse con la comida almacenada para pasar el invierno. Flik, una hormiga cansada de seguir las reglas del grupo, decide abandonar la colonia en busca de un grupo de mercenarios que los defiendan. Por equivocación, Flik reclutará a una pandilla de artistas de circo.

Español Latino AC3 5.1 Bluray – Ingles E-AC3 5.1 WEB-DL

Ficha técnica

Video trailer de la película

Enlaces de descarga

Rip de Bluray

Descargar A Bug’s Life (1996) WEB-DL 4K-HDR 2160p Latino




Aportes de DPeliculasHDmega la pass es:dpeliculashdmega.org Aportes de CinemaniaHD la pass es:cinemaniahdd.com
Guardado en : 4K HDR , 4K UHD , Animación , Aventura , Comedia , Familia

Películas relacionadas

  • Karate Kid (2010) HD 1080p Latino

    Karate Kid (2010) HD 1080p Latino

    2010
    Karate Kid (2010) HD 1080p Latino

    0.0 2h 19m 2010

    Dre Parkerpodría haber sido el más popular en Detroit, pero la carrera profesional de su madre los...

    Director: Nikki Clapp

    Género: Acción

    Actores: Zhiheng Wang

  • Karate Kid (2010) Full HD 1080p Latino

    Karate Kid (2010) Full HD 1080p Latino

    2010
    Karate Kid (2010) Full HD 1080p Latino

    5.0 2h 19m 2010

    Dre Parkerpodría haber sido el más popular en Detroit, pero la carrera profesional de su madre los...

    Director: Nikki Clapp

    Género: Acción

    Actores: Zhiheng Wang

  • Karate Kid (2010) REMUX 1080p Latino

    Karate Kid (2010) REMUX 1080p Latino

    2010
    Karate Kid (2010) REMUX 1080p Latino

    0.0 2h 19m 2010

    Dre Parkerpodría haber sido el más popular en Detroit, pero la carrera profesional de su madre los...

    Director: Nikki Clapp

    Género: Acción

    Actores: Zhiheng Wang

  • El Karate Kid 4 (1994) HD 1080p Latino

    El Karate Kid 4 (1994) HD 1080p Latino

    1994
    El Karate Kid 4 (1994) HD 1080p Latino

    0.0 1h 47m 1994

    Julie (Hilary Swank) perdió a sus padres cuando sólo era una niña. Ahora, a sus 17 años, vive con...

    Director: Christopher Cain

    Género: Acción

    Actores: Wayne Chou

  • El Karate Kid 4 (1994) Full HD 1080p Latino

    El Karate Kid 4 (1994) Full HD 1080p Latino

    1994
    El Karate Kid 4 (1994) Full HD 1080p Latino

    5.0 1h 47m 1994

    Julie (Hilary Swank) perdió a sus padres cuando sólo era una niña. Ahora, a sus 17 años, vive con...

    Director: Christopher Cain

    Género: Acción

    Actores: Wayne Chou

Comentarios 0