A Babysitter’s Guide to Monster Hunting (2020) NF WEB-DL 1080p Latino

20 vistas
1 estrella2 estrellas3 estrellas4 estrellas5 estrellas (1 votos, promedio: 5,00 de 5)
Cargando...

Información de A Babysitter’s Guide to Monster Hunting (2020) NF WEB-DL 1080p Latino

Datos de la película

  • Calidad: WEBDL
  • Audio: Español Latino AC3 5.1 Netflix - Ingles AC3 5.1 Netflix
  • Subtitulos: Español Latino SRT- FORZADOS SRT
  • Resolución: 1920x1080
  • Formato: MKV
  • Codec: H.264
  • Encoder:
  • Mediainfo: Clic para Mostrar Datos Ver
  • A Babysitter's Guide to Monster Hunting (2020) NF WEB-DL 1080p Latino [CNMNHDD].mkv
    Format                      : Matroska
    Format version              : Version 4
    File size                   : 2.75 GiB
    Duration                    : 1 h 38 min
    Overall bit rate mode       : Variable
    Overall bit rate            : 3 989 kb/s
    Movie name                  : A Babysitter's Guide to Monster Hunting (2020) - CinemaniaHDD.Net
    Encoded date                : UTC 2020-10-16 00:52:18
    Writing application         : mkvmerge v51.0.0 ('I Wish') 64-bit
    Writing library             : libebml v1.4.0 + libmatroska v1.6.2

    Video
    ID                          : 1
    Format                      : AVC
    Format/Info                 : Advanced Video Codec
    Format profile              : Main@L4
    Format settings             : CABAC / 3 Ref Frames
    Format settings, CABAC      : Yes
    Format settings, Reference  : 3 frames
    Codec ID                    : V_MPEG4/ISO/AVC
    Duration                    : 1 h 38 min
    Bit rate mode               : Variable
    Bit rate                    : 3 320 kb/s
    Maximum bit rate            : 4 980 kb/s
    Width                       : 1 920 pixels
    Height                      : 1 080 pixels
    Display aspect ratio        : 16:9
    Frame rate mode             : Constant
    Frame rate                  : 24.000 FPS
    Color space                 : YUV
    Chroma subsampling          : 4:2:0
    Bit depth                   : 8 bits
    Scan type                   : Progressive
    Bits/(Pixel*Frame)          : 0.067
    Stream size                 : 2.22 GiB (81%)
    Title                       : CinemaniaHDD
    Writing library             : x264 core 148 r2722 1b0121b
    Encoding settings           : cabac=1 / ref=3 / deblock=1:0:0 / analyse=0x1:0x111 / me=umh / subme=10 / psy=1 / psy_rd=1.00:0.00 / mixed_ref=1 / me_range=24 / chroma_me=1 / trellis=2 / 8x8dct=0 / cqm=0 / deadzone=21,11 / fast_pskip=1 / chroma_qp_offset=-2 / threads=8 / lookahead_threads=1 / sliced_threads=0 / nr=0 / decimate=1 / interlaced=0 / bluray_compat=0 / stitchable=1 / constrained_intra=0 / bframes=2 / b_pyramid=0 / b_adapt=2 / b_bias=0 / direct=3 / weightb=1 / open_gop=0 / weightp=2 / keyint=250 / keyint_min=24 / scenecut=0 / intra_refresh=0 / rc_lookahead=48 / rc=2pass / mbtree=1 / bitrate=3320 / ratetol=1.0 / qcomp=0.50 / qpmin=6 / qpmax=51 / qpstep=4 / cplxblur=20.0 / qblur=0.5 / vbv_maxrate=4980 / vbv_bufsize=6640 / nal_hrd=vbr / filler=0 / ip_ratio=1.40 / aq=1:1.00
    Default                     : Yes
    Forced                      : No

    Audio #1
    ID                          : 2
    Format                      : AC-3
    Format/Info                 : Audio Coding 3
    Commercial name             : Dolby Digital
    Codec ID                    : A_AC3
    Duration                    : 1 h 38 min
    Bit rate mode               : Constant
    Bit rate                    : 384 kb/s
    Channel(s)                  : 6 channels
    Channel layout              : L R C LFE Ls Rs
    Sampling rate               : 48.0 kHz
    Frame rate                  : 31.250 FPS (1536 SPF)
    Compression mode            : Lossy
    Stream size                 : 272 MiB (10%)
    Title                       : Español latino [CinemaniaHDD]
    Language                    : Spanish
    Service kind                : Complete Main
    Default                     : Yes
    Forced                      : No

    Audio #2
    ID                          : 3
    Format                      : AC-3
    Format/Info                 : Audio Coding 3
    Commercial name             : Dolby Digital
    Codec ID                    : A_AC3
    Duration                    : 1 h 38 min
    Bit rate mode               : Constant
    Bit rate                    : 384 kb/s
    Channel(s)                  : 6 channels
    Channel layout              : L R C LFE Ls Rs
    Sampling rate               : 48.0 kHz
    Frame rate                  : 31.250 FPS (1536 SPF)
    Compression mode            : Lossy
    Stream size                 : 272 MiB (10%)
    Title                       : Inglés [CinemaniaHDD]
    Language                    : English
    Service kind                : Complete Main
    Default                     : No
    Forced                      : No

    Text #1
    ID                          : 4
    Format                      : UTF-8
    Codec ID                    : S_TEXT/UTF8
    Codec ID/Info               : UTF-8 Plain Text
    Duration                    : 1 h 34 min
    Bit rate                    : 1 b/s
    Count of elements           : 29
    Stream size                 : 723 Bytes (0%)
    Title                       : Forzados [CinemaniaHDD]
    Language                    : Spanish
    Default                     : Yes
    Forced                      : Yes

    Text #2
    ID                          : 5
    Format                      : UTF-8
    Codec ID                    : S_TEXT/UTF8
    Codec ID/Info               : UTF-8 Plain Text
    Duration                    : 1 h 34 min
    Bit rate                    : 46 b/s
    Count of elements           : 1183
    Stream size                 : 32.6 KiB (0%)
    Title                       : Español latino [CinemaniaHDD]
    Language                    : Spanish
    Default                     : No
    Forced                      : No

    Text #3
    ID                          : 6
    Format                      : UTF-8
    Codec ID                    : S_TEXT/UTF8
    Codec ID/Info               : UTF-8 Plain Text
    Duration                    : 1 h 34 min
    Bit rate                    : 75 b/s
    Count of elements           : 1741
    Stream size                 : 51.8 KiB (0%)
    Title                       : Inglés [CinemaniaHDD]
    Language                    : English
    Default                     : No
    Forced                      : No

  • Peso: 2.75 GiB

Sinopsis

Reclutada por una sociedad secreta de niñeras, una adolescente lucha contra el coco y sus monstruos cuando atrapan al niño que ella cuida en Halloween.

Ficha técnica

Video trailer de la película

Enlaces de descarga

Rip de Bluray

Descargar A Babysitter’s Guide to Monster Hunting (2020) NF WEB-DL 1080p Latino




Aportes de DPeliculasHDmega la pass es:dpeliculashdmega.org Aportes de CinemaniaHD la pass es:cinemaniahdd.com
Guardado en : Aventura , Comedia , Familia , Fantasía , Netflix

Películas relacionadas

  • Bulletproof 2 (2020) WEB-DL 1080p Latino

    Bulletproof 2 (2020) WEB-DL 1080p Latino

    2020
    Bulletproof 2 (2020) WEB-DL 1080p Latino

    5.0 1h 38m 2020

    El agente especial Jack Carter asume de mala gana la identidad del criminal Archie Moses para derrotar...

    Director: Don Michael Paul

    Género: Acción

    Actores: Tuks Tad Lungu

  • Donnie Darko (2001) REMUX 1080p Latino

    Donnie Darko (2001) REMUX 1080p Latino

    2001
    Donnie Darko (2001) REMUX 1080p Latino

    5.0 1h 53m 2001

    Descargar Donnie Darko (2001) REMUX 1080p Latino. Donnie es un chico americano dotado de gran inteligencia...

    Director: Richard Kelly

    Género: Drama

    Actores: Tom Tangen

  • Good Boy (2020) WEB-DL 1080p Latino

    Good Boy (2020) WEB-DL 1080p Latino

    2020
    Good Boy (2020) WEB-DL 1080p Latino

    5.0 1h 29m 2020

    Cuando Maggie consigue un perro de apoyo emocional para ayudar a calmar parte de su ansiedad, descubre...

    Director: Tyler MacIntyre

    Género: Comedia

    Actores: Vincent Washington

  • Barbarians (2020) Temporada 1 NF WEB-DL 1080p Latino

    Barbarians (2020) Temporada 1 NF WEB-DL 1080p Latino

    2020
    Barbarians (2020) Temporada 1 NF WEB-DL 1080p Latino

    5.0 0h 45m 2020

    Las lealtades opuestas de un oficial romano, dividido entre el poderoso imperio que lo vio crecer y su...

    Director: Jan Martin Scharf

    Género: Action & Adventure

    Actores: Tibor Milos Krisko

Comentarios 0