A 47 metros (2017) WEBDL 1080p Subtitulada

2.817 vistas
1 estrella2 estrellas3 estrellas4 estrellas5 estrellas (2 votos, promedio: 4,00 de 5)
Cargando...

Información de A 47 metros (2017) WEBDL 1080p Subtitulada

Datos de la película

  • Calidad: WEBDL
  • Audio: Ingles AC3 5.1 iTunes
  • Subtitulos: Español Latino SRT
  • Resolución: 1920x1080p
  • Formato: MKV
  • Codec: H.264
  • Encoder: Dpelis
  • Mediainfo: Clic para Mostrar Datos Ver
  • 47 Meters Down (2017) WEBDL Sub Latino.mkv
    Format                      : Matroska
    Format version              : Version 4 / Version 2
    File size                   : 3.37 GiB
    Duration                    : 1 h 25 min
    Overall bit rate            : 5 641 kb/s
    Movie name                  : DPeliculasHDMega.ORG
    Encoded date                : UTC 2017-09-12 01:04:20
    Writing application         : mkvmerge v10.0.0 ('To Drown In You') 64bit
    Writing library             : libebml v1.3.4 + libmatroska v1.4.5

    Video
    ID                          : 1
    Format                      : AVC
    Format/Info                 : Advanced Video Codec
    Format profile              : High@L4
    Format settings, CABAC      : Yes
    Format settings, RefFrames  : 4 frames
    Codec ID                    : V_MPEG4/ISO/AVC
    Duration                    : 1 h 25 min
    Bit rate                    : 5 255 kb/s
    Width                       : 1 920 pixels
    Height                      : 1 080 pixels
    Display aspect ratio        : 16:9
    Frame rate mode             : Constant
    Frame rate                  : 25.000 FPS
    Color space                 : YUV
    Chroma subsampling          : 4:2:0
    Bit depth                   : 8 bits
    Scan type                   : Progressive
    Bits/(Pixel*Frame)          : 0.101
    Stream size                 : 3.14 GiB (93%)
    Language                    : English
    Default                     : Yes
    Forced                      : No
    Color range                 : Limited
    Color primaries             : BT.709
    Transfer characteristics    : BT.709
    Matrix coefficients         : BT.709

    Audio
    ID                          : 2
    Format                      : AC-3
    Format/Info                 : Audio Coding 3
    Format settings, Endianness : Big
    Codec ID                    : A_AC3
    Duration                    : 1 h 25 min
    Bit rate mode               : Constant
    Bit rate                    : 384 kb/s
    Channel(s)                  : 6 channels
    Channel positions           : Front: L C R, Side: L R, LFE
    Sampling rate               : 48.0 kHz
    Frame rate                  : 31.250 FPS (1536 SPF)
    Bit depth                   : 16 bits
    Compression mode            : Lossy
    Stream size                 : 235 MiB (7%)
    Language                    : English
    Service kind                : Complete Main
    Default                     : Yes
    Forced                      : No

    Text
    ID                          : 3
    Format                      : UTF-8
    Codec ID                    : S_TEXT/UTF8
    Codec ID/Info               : UTF-8 Plain Text
    Duration                    : 1 h 15 min
    Bit rate                    : 60 b/s
    Count of elements           : 1060
    Stream size                 : 33.2 KiB (0%)
    Language                    : Spanish
    Default                     : Yes
    Forced                      : No

    Menu
    00:00:00.000                : en:Глава 1
    00:07:12.360                : en:Глава 2
    00:13:26.920                : en:Глава 3
    00:19:54.360                : en:Глава 4
    00:26:10.920                : en:Глава 5
    00:32:42.920                : en:Глава 6
    00:37:46.800                : en:Глава 7
    00:45:21.480                : en:Глава 8
    00:52:15.160                : en:Глава 9
    00:57:55.440                : en:Глава 10
    01:02:35.920                : en:Глава 11
    01:09:35.520                : en:Глава 12
    01:14:56.360                : en:Глава 13

  • Peso: 3.37 GBA

Sinopsis

Descargar 47 Metros una pelicula de Terror Durante una inmersión, dos hermanas de vacaciones en México se quedan atrapadas en una jaula de avistamiento de tiburones, con el oxígeno agotándose y rodeadas de peligrosos tiburones blancos. Sin ayuda en la superficie, sin ayuda bajo la superficie.

Ficha técnica

  • Titulo original: 47 Meters Down
  • Fecha de lanzamiento: 15-06-2017 (United Kingdom)
  • Director: Johannes Roberts
  • Género: Suspenso, Terror
  • Puntuación: 4.0 2 votos
  • Duración:
    1h 27m

Video trailer de la película

Enlaces de descarga

Rip de Bluray

Descargar A 47 metros (2017) WEBDL 1080p Subtitulada




Aportes de DPeliculasHDmega la pass es:dpeliculashdmega.org Aportes de CinemaniaHD la pass es:cinemaniahdd.com
Guardado en : Suspenso , Terror

Películas relacionadas

  • Transcendence: Identidad Virtual (2014) 1080p Latino

    Transcendence: Identidad Virtual (2014) 1080p Latino

    2014
    Transcendence: Identidad Virtual (2014) 1080p Latino

    0.0 1h 59m 2014

    Descargar Transcendence: Identidad Virtual (2014) 1080p Latino. El Dr. Will Caster (Johnny Depp), prestigioso...

    Director: Wally Pfister

    Género: Ciencia ficción

    Actores: Xander Berkeley

  • Grand Isle (2019) HD 1080p Latino

    Grand Isle (2019) HD 1080p Latino

    2019
    Grand Isle (2019) HD 1080p Latino

    0.0 1h 37m 2019

    Descargar Grand Isle [Atrapado En La Tormenta/Maldad Oculta] (2019) HD 1080p Latino. Walter y su esposa...

    Director: Stephen S. Campanelli

    Género: Acción

    Actores: Zulay Henao

Comentarios 0