A 47 metros 2 (2019) 1080p Latino

1.502 vistas
1 estrella2 estrellas3 estrellas4 estrellas5 estrellas (3 votos, promedio: 5,00 de 5)
Cargando...

Información de A 47 metros 2 (2019) 1080p Latino

Datos de la película

  • Calidad: 1080p
  • Audio: Español Latino AC3 2.0 iTUNES - Ingles AC3 5.1 BLURAY
  • Subtitulos: Español Latino SRT- FORZADOS SRT
  • Resolución: 1920x804
  • Formato: MKV
  • Codec: H.264
  • Encoder: cinemaniahd
  • Mediainfo: Clic para Mostrar Datos Ver
  • 47 Meters Down Uncaged (2019) 1080p Latino.mkv
    Format                      : Matroska
    Format version              : Version 4
    File size                   : 2.48 GiB
    Duration                    : 1 h 30 min
    Overall bit rate            : 3 941 kb/s
    Movie name                  : 47 Meters Down Uncaged (2019) 1080p Latino
    Encoded date                : UTC 2019-12-31 18:40:08
    Writing application         : mkvmerge v38.0.0 ('The Silent Type') 64-bit
    Writing library             : libebml v1.3.9 + libmatroska v1.5.2

    Video
    ID                          : 1
    Format                      : AVC
    Format/Info                 : Advanced Video Codec
    Format profile              : High@L4.1
    Format settings             : CABAC / 5 Ref Frames
    Format settings, CABAC      : Yes
    Format settings, ReFrames   : 5 frames
    Codec ID                    : V_MPEG4/ISO/AVC
    Duration                    : 1 h 30 min
    Bit rate                    : 3 299 kb/s
    Nominal bit rate            : 3 500 kb/s
    Width                       : 1 920 pixels
    Height                      : 804 pixels
    Display aspect ratio        : 2.40:1
    Frame rate mode             : Constant
    Frame rate                  : 23.976 (24000/1001) FPS
    Color space                 : YUV
    Chroma subsampling          : 4:2:0
    Bit depth                   : 8 bits
    Scan type                   : Progressive
    Bits/(Pixel*Frame)          : 0.089
    Stream size                 : 2.08 GiB (84%)
    Title                       : CinemaniaHDD
    Writing library             : x264 core 157 r2935 545de2f
    Encoding settings           : cabac=1 / ref=5 / deblock=1:0:0 / analyse=0x3:0x113 / me=hex / subme=8 / psy=1 / psy_rd=1.00:0.00 / mixed_ref=1 / me_range=16 / chroma_me=1 / trellis=2 / 8x8dct=1 / cqm=0 / deadzone=21,11 / fast_pskip=1 / chroma_qp_offset=-2 / threads=25 / lookahead_threads=4 / sliced_threads=0 / nr=0 / decimate=1 / interlaced=0 / bluray_compat=0 / constrained_intra=0 / bframes=3 / b_pyramid=2 / b_adapt=1 / b_bias=0 / direct=3 / weightb=1 / open_gop=0 / weightp=2 / keyint=240 / keyint_min=24 / scenecut=40 / intra_refresh=0 / rc_lookahead=50 / rc=abr / mbtree=1 / bitrate=3500 / ratetol=1.0 / qcomp=0.60 / qpmin=0 / qpmax=69 / qpstep=4 / vbv_maxrate=62500 / vbv_bufsize=78125 / nal_hrd=none / filler=0 / ip_ratio=1.40 / aq=1:1.00
    Default                     : Yes
    Forced                      : No
    Color range                 : Limited
    Color primaries             : BT.709
    Transfer characteristics    : BT.709
    Matrix coefficients         : BT.709

    Audio #1
    ID                          : 2
    Format                      : AC-3
    Format/Info                 : Audio Coding 3
    Commercial name             : Dolby Digital
    Codec ID                    : A_AC3
    Duration                    : 1 h 30 min
    Bit rate mode               : Constant
    Bit rate                    : 192 kb/s
    Channel(s)                  : 2 channels
    Channel layout              : L R
    Sampling rate               : 48.0 kHz
    Frame rate                  : 31.250 FPS (1536 SPF)
    Bit depth                   : 16 bits
    Compression mode            : Lossy
    Delay relative to video     : -5 ms
    Stream size                 : 124 MiB (5%)
    Title                       : Español latino [CinemaniaHDD]
    Language                    : Spanish
    Service kind                : Complete Main
    Default                     : No
    Forced                      : No

    Audio #2
    ID                          : 3
    Format                      : AC-3
    Format/Info                 : Audio Coding 3
    Commercial name             : Dolby Digital
    Codec ID                    : A_AC3
    Duration                    : 1 h 30 min
    Bit rate mode               : Constant
    Bit rate                    : 448 kb/s
    Channel(s)                  : 6 channels
    Channel layout              : L R C LFE Ls Rs
    Sampling rate               : 48.0 kHz
    Frame rate                  : 31.250 FPS (1536 SPF)
    Bit depth                   : 16 bits
    Compression mode            : Lossy
    Delay relative to video     : -5 ms
    Stream size                 : 289 MiB (11%)
    Title                       : Inglés [CinemaniaHDD]
    Language                    : English
    Service kind                : Complete Main
    Default                     : Yes
    Forced                      : No

    Text #1
    ID                          : 4
    Format                      : UTF-8
    Codec ID                    : S_TEXT/UTF8
    Codec ID/Info               : UTF-8 Plain Text
    Duration                    : 1 h 16 min
    Bit rate                    : 0 b/s
    Count of elements           : 7
    Stream size                 : 194 Bytes (0%)
    Title                       : Forzados [CinemaniaHDD]
    Language                    : Spanish
    Default                     : Yes
    Forced                      : Yes

    Text #2
    ID                          : 5
    Format                      : UTF-8
    Codec ID                    : S_TEXT/UTF8
    Codec ID/Info               : UTF-8 Plain Text
    Duration                    : 1 h 17 min
    Bit rate                    : 34 b/s
    Count of elements           : 749
    Stream size                 : 19.6 KiB (0%)
    Title                       : Español latino [CinemaniaHDD]
    Language                    : Spanish
    Default                     : No
    Forced                      : No

  • Peso: 2.48 GiB

Sinopsis

Esta secuela de «A 47 Metros» traslada la mortífera acción de los tiburones desde México a Brasil, y seguirá a un grupo de chicas en busca de aventuras en la costa de Recife. Con la esperanza de salir del rutinario sendero turístico, las chicas escuchan algo acerca de unas ruinas submarinas ocultas, pero descubren que bajo las olas turquesas su Atlantis secreta no está completamente deshabitada.

Ficha técnica

  • Titulo original: 47 Meters Down: Uncaged
  • Fecha de lanzamiento: 15-08-2019 (United Kingdom, United States of America)
  • Director: Johannes Roberts
  • Género: Aventura, Suspenso, Terror
  • Puntuación: 5.0 3 votos
  • Duración:
    1h 30m

Video trailer de la película

Enlaces de descarga

Rip de Bluray

Descargar A 47 metros 2 (2019) 1080p Latino




Aportes de DPeliculasHDmega la pass es:dpeliculashdmega.org Aportes de CinemaniaHD la pass es:cinemaniahdd.com
Guardado en : Aventura , Suspenso , Terror

Películas relacionadas

  • Transcendence: Identidad Virtual (2014) 1080p Latino

    Transcendence: Identidad Virtual (2014) 1080p Latino

    2014
    Transcendence: Identidad Virtual (2014) 1080p Latino

    0.0 1h 59m 2014

    Descargar Transcendence: Identidad Virtual (2014) 1080p Latino. El Dr. Will Caster (Johnny Depp), prestigioso...

    Director: Wally Pfister

    Género: Ciencia ficción

    Actores: Xander Berkeley

  • Karate Kid (2010) HD 1080p Latino

    Karate Kid (2010) HD 1080p Latino

    2010
    Karate Kid (2010) HD 1080p Latino

    0.0 2h 19m 2010

    Dre Parkerpodría haber sido el más popular en Detroit, pero la carrera profesional de su madre los...

    Director: Nikki Clapp

    Género: Acción

    Actores: Zhiheng Wang

Comentarios 0