×

¿Problemas para descargar con Mozilla, EDGE? Deshabilita la opción "Abrir vinculos en una pestaña nueva" tal como lo muestra ésta imagen.

They/Them (2022) PCOK WEB-DL 1080p Latino

463 vistas

Información de They/Them (2022) PCOK WEB-DL 1080p Latino

Datos de la película

  • Calidad: 1080p
  • Audio: Español Latino AC3 2.0 WEB-DL - Ingles AC3 5.1 WEB-DL
  • Subtitulos: Español Latino SRT- FORZADOS SRT
  • Resolución: 1920x1080
  • Formato: MKV
  • Codec: H.264
  • Encoder: cinemaniahdd
  • Mediainfo: Clic para Mostrar Datos Ver
  • They/Them (2022) PCOK WEB-DL 1080p Latino [CNMNHDD].mkv
    Format                      : Matroska
    Format version              : Version 4
    File size                   : 5.53 GiB
    Duration                    : 1 h 44 min
    Overall bit rate            : 7 601 kb/s
    Movie name                  : They/Them (2022) [1080p] - CinemaniaHDD.Net
    Encoded date                : UTC 2022-08-05 17:21:14
    Writing application         : mkvmerge v56.1.0 ('My Friend') 64-bit
    Writing library             : libebml v1.4.2 + libmatroska v1.6.4

    Video
    ID                          : 1
    Format                      : AVC
    Format/Info                 : Advanced Video Codec
    Format profile              : High@L4
    Format settings             : CABAC / 4 Ref Frames
    Format settings, CABAC      : Yes
    Format settings, Reference  : 4 frames
    Codec ID                    : V_MPEG4/ISO/AVC
    Duration                    : 1 h 44 min
    Bit rate                    : 6 766 kb/s
    Nominal bit rate            : 7 814 kb/s
    Width                       : 1 920 pixels
    Height                      : 1 080 pixels
    Display aspect ratio        : 16:9
    Frame rate mode             : Constant
    Frame rate                  : 23.976 (24000/1001) FPS
    Color space                 : YUV
    Chroma subsampling          : 4:2:0
    Bit depth                   : 8 bits
    Scan type                   : Progressive
    Bits/(Pixel*Frame)          : 0.136
    Stream size                 : 4.92 GiB (89%)
    Title                       : CinemaniaHDD
    Writing library             : x264 core 164 r3095 baee400
    Encoding settings           : cabac=1 / ref=4 / deblock=1:0:0 / analyse=0x3:0x113 / me=umh / subme=7 / psy=1 / psy_rd=0.00:0.00 / mixed_ref=1 / me_range=16 / chroma_me=1 / trellis=1 / 8x8dct=1 / cqm=0 / deadzone=21,11 / fast_pskip=0 / chroma_qp_offset=0 / threads=34 / lookahead_threads=5 / sliced_threads=0 / nr=0 / decimate=1 / interlaced=0 / bluray_compat=0 / constrained_intra=0 / bframes=16 / b_pyramid=2 / b_adapt=1 / b_bias=0 / direct=1 / weightb=1 / open_gop=0 / weightp=2 / keyint=48 / keyint_min=4 / scenecut=0 / intra_refresh=0 / rc_lookahead=40 / rc=2pass / mbtree=1 / bitrate=7814 / ratetol=1.0 / qcomp=0.60 / qpmin=10 / qpmax=51 / qpstep=4 / cplxblur=20.0 / qblur=0.5 / vbv_maxrate=7814 / vbv_bufsize=7814 / nal_hrd=none / filler=0 / ip_ratio=1.41 / aq=1:1.00
    Default                     : Yes
    Forced                      : No
    Color range                 : Limited
    Matrix coefficients         : BT.709

    Audio #1
    ID                          : 2
    Format                      : AC-3
    Format/Info                 : Audio Coding 3
    Commercial name             : Dolby Digital
    Codec ID                    : A_AC3
    Duration                    : 1 h 44 min
    Bit rate mode               : Constant
    Bit rate                    : 384 kb/s
    Channel(s)                  : 2 channels
    Channel layout              : L R
    Sampling rate               : 48.0 kHz
    Frame rate                  : 31.250 FPS (1536 SPF)
    Compression mode            : Lossy
    Stream size                 : 286 MiB (5%)
    Title                       : Español latino [CinemaniaHDD]
    Language                    : Spanish
    Service kind                : Complete Main
    Default                     : Yes
    Forced                      : No

    Audio #2
    ID                          : 3
    Format                      : AC-3
    Format/Info                 : Audio Coding 3
    Commercial name             : Dolby Digital
    Codec ID                    : A_AC3
    Duration                    : 1 h 44 min
    Bit rate mode               : Constant
    Bit rate                    : 448 kb/s
    Channel(s)                  : 6 channels
    Channel layout              : L R C LFE Ls Rs
    Sampling rate               : 48.0 kHz
    Frame rate                  : 31.250 FPS (1536 SPF)
    Compression mode            : Lossy
    Stream size                 : 334 MiB (6%)
    Title                       : Inglés [CinemaniaHDD]
    Language                    : English
    Service kind                : Complete Main
    Default                     : No
    Forced                      : No

    Text #1
    ID                          : 4
    Format                      : UTF-8
    Codec ID                    : S_TEXT/UTF8
    Codec ID/Info               : UTF-8 Plain Text
    Duration                    : 1 h 37 min
    Bit rate                    : 0 b/s
    Count of elements           : 14
    Stream size                 : 280 Bytes (0%)
    Title                       : Forzados [CinemaniaHDD]
    Language                    : Spanish
    Default                     : Yes
    Forced                      : No

    Text #2
    ID                          : 5
    Format                      : UTF-8
    Codec ID                    : S_TEXT/UTF8
    Codec ID/Info               : UTF-8 Plain Text
    Duration                    : 1 h 39 min
    Bit rate                    : 42 b/s
    Count of elements           : 1038
    Stream size                 : 31.3 KiB (0%)
    Title                       : Español latino [CinemaniaHDD]
    Language                    : Spanish
    Default                     : No
    Forced                      : No

    Text #3
    ID                          : 6
    Format                      : UTF-8
    Codec ID                    : S_TEXT/UTF8
    Codec ID/Info               : UTF-8 Plain Text
    Duration                    : 1 h 39 min
    Bit rate                    : 42 b/s
    Count of elements           : 1043
    Stream size                 : 31.0 KiB (0%)
    Title                       : Inglés [CinemaniaHDD]
    Language                    : English
    Default                     : No
    Forced                      : No

     

  • Peso: 5.53 GiB

Sinopsis

Un grupo de adolescentes LGBTQIA+ se dirigen al Campamento Whistler, un centro para adolescentes que han sido enviados por sus padres para tratar de lidiar con lo que ellos consideran ser un tabú. El director del campamento, Owen Whistler, y el resto de sus empleados se encargarán de dar la bienvenida a los nuevos invitados en este campamento de verano que esconde algo tenebroso entre sus paredes.

Ficha técnica

  • Titulo original: They/Them
  • Fecha de lanzamiento: 24-07-2022 (United States of America)
  • Director: John Logan
  • Género: Suspenso, Terror

Video trailer de la película

Enlaces de descarga

Rip de Bluray

Descargar They/Them (2022) PCOK WEB-DL 1080p Latino




Aportes de DPeliculasHDmega la pass es:dpeliculashdmega.org Aportes de CinemaniaHD la pass es:cinemaniahdd.com
Guardado en : Suspenso , Terror

Películas relacionadas

  • Hasta la muerte (2021) HD 1080p Latino

    Hasta la muerte (2021) HD 1080p Latino

    2021
    Hasta la muerte (2021) HD 1080p Latino

    1h 28m 2021

    Descargar Hasta la muerte (2021) HD 1080p Latino. Después de una velada romántica en su apartada casa...

    Director: SK Dale

    Género: HD 1080p

    Actores: Teodora Djuric

  • Hasta la muerte (2021) PLACEBO Full HD 1080p Latino

    Hasta la muerte (2021) PLACEBO Full HD 1080p Latino

    2021
    Hasta la muerte (2021) PLACEBO Full HD 1080p Latino

    1h 28m 2021

    Descargar Hasta la muerte (2021) PLACEBO Full HD 1080p Latino. Después de una velada romántica en su...

    Director: SK Dale

    Género: FULL 1080p Plateadas

    Actores: Teodora Djuric

  • Hasta la muerte (2021) REMUX 1080p Latino

    Hasta la muerte (2021) REMUX 1080p Latino

    2021
    Hasta la muerte (2021) REMUX 1080p Latino

    1h 28m 2021

    Descargar Hasta la muerte (2021) REMUX 1080p Latino. Después de una velada romántica en su apartada...

    Director: SK Dale

    Género: Remux

    Actores: Teodora Djuric

  • Animal Kingdom (2010) REMUX 1080p Latino

    Animal Kingdom (2010) REMUX 1080p Latino

    2010
    Animal Kingdom (2010) REMUX 1080p Latino

    1h 55m 2010

    Tras la muerte de su madre, Joshua “J” Cody, tiene que trasladarse a casa de su abuela Janine, que...

    Director: David Michôd

    Género: Crimen

    Actores: Tim Phillipps

  • Código: Emperador (2022) NF WEB-DL 1080p Castellano

    Código: Emperador (2022) NF WEB-DL 1080p Castellano

    2022
    Código: Emperador (2022) NF WEB-DL 1080p Castellano

    1h 46m 2022

    Descargar Código: Emperador (2022) NF WEB-DL 1080p Castellano. Un agente de inteligencia español encargado...

    Director: Jorge Coira

    Género: Acción

    Actores: Santi Prego

They/Them (2022) PCOK WEB-DL 1080p Latino pelicula full hd, They/Them (2022) PCOK WEB-DL 1080p Latino mega latino, They/Them (2022) PCOK WEB-DL 1080p Latino 4k latino, They/Them (2022) PCOK WEB-DL 1080p Latino pelicula completa, They/Them (2022) PCOK WEB-DL 1080p Latino descargar gratis, descargar They/Them (2022) PCOK WEB-DL 1080p Latino pelicula latino, They/Them (2022) PCOK WEB-DL 1080p Latino 1 link mega, They/Them (2022) PCOK WEB-DL 1080p Latino 1 link google drive, They/Them (2022) PCOK WEB-DL 1080p Latino hd 1080p latino.
Comentarios 0