×

¿Problemas para descargar con Mozilla, EDGE? Deshabilita la opción "Abrir vinculos en una pestaña nueva" tal como lo muestra ésta imagen.

Nueve (2009) Full HD 1080p Latino

495 vistas

Información de Nueve (2009) Full HD 1080p Latino

Datos de la película

  • Calidad: Full 1080p
  • Audio: Se especifica abajo de la Sinopsis
  • Subtitulos: Español Latino PGS - Ingles PGS
  • Resolución: 1920x1080p
  • Formato: MKV
  • Codec: H.264
  • Encoder: CinefiloCool
  • Mediainfo: Clic para Mostrar Datos Ver
  • Nueve (2009) Full HD 1080p Latino-CMHDD.mkv
    Format                      : Matroska
    Format version              : Version 4
    File size                   : 3.42 GiB
    Duration                    : 1 h 19 min
    Overall bit rate            : 6 169 kb/s
    Movie name                  : 9: Nine (2009) CinemaniaHDD.Net
    Encoded date                : UTC 2022-05-10 05:54:28
    Writing application         : mkvmerge v56.1.0 ('My Friend') 64-bit
    Writing library             : libebml v1.4.2 + libmatroska v1.6.4
    Attachments                 : CINEMANIAHD.png

    Video
    ID                          : 1
    Format                      : AVC
    Format/Info                 : Advanced Video Codec
    Format profile              : High@L4.1
    Format settings             : CABAC / 4 Ref Frames
    Format settings, CABAC      : Yes
    Format settings, Reference  : 4 frames
    Codec ID                    : V_MPEG4/ISO/AVC
    Duration                    : 1 h 19 min
    Bit rate                    : 3 625 kb/s
    Width                       : 1 920 pixels
    Height                      : 1 080 pixels
    Display aspect ratio        : 16:9
    Frame rate mode             : Constant
    Frame rate                  : 23.976 (24000/1001) FPS
    Color space                 : YUV
    Chroma subsampling          : 4:2:0
    Bit depth                   : 8 bits
    Scan type                   : Progressive
    Bits/(Pixel*Frame)          : 0.073
    Stream size                 : 2.01 GiB (59%)
    Title                       : Full HD1080p [CinemaniaHDD]
    Writing library             : x264 core 163 r3059 b684ebe0
    Encoding settings           : cabac=1 / ref=4 / deblock=1:0:0 / analyse=0x3:0x133 / me=tesa / subme=11 / psy=1 / psy_rd=1.00:0.00 / mixed_ref=1 / me_range=24 / chroma_me=1 / trellis=2 / 8x8dct=1 / cqm=0 / deadzone=21,11 / fast_pskip=0 / chroma_qp_offset=-2 / threads=24 / lookahead_threads=6 / sliced_threads=0 / nr=0 / decimate=1 / interlaced=0 / bluray_compat=0 / constrained_intra=0 / bframes=16 / b_pyramid=2 / b_adapt=2 / b_bias=0 / direct=3 / weightb=1 / open_gop=0 / weightp=2 / keyint=240 / keyint_min=24 / scenecut=40 / intra_refresh=0 / rc_lookahead=60 / rc=crf / mbtree=1 / crf=20.0 / qcomp=0.60 / qpmin=0 / qpmax=69 / qpstep=4 / vbv_maxrate=62500 / vbv_bufsize=78125 / crf_max=0.0 / nal_hrd=none / filler=0 / ip_ratio=1.40 / aq=1:1.00
    Default                     : Yes
    Forced                      : Yes
    Color range                 : Limited
    Color primaries             : BT.709
    Transfer characteristics    : BT.709
    Matrix coefficients         : BT.709

    Audio #1
    ID                          : 2
    Format                      : DTS
    Format/Info                 : Digital Theater Systems
    Codec ID                    : A_DTS
    Duration                    : 1 h 19 min
    Bit rate mode               : Constant
    Bit rate                    : 768 kb/s
    Channel(s)                  : 6 channels
    Channel layout              : C L R Ls Rs LFE
    Sampling rate               : 48.0 kHz
    Frame rate                  : 93.750 FPS (512 SPF)
    Bit depth                   : 24 bits
    Compression mode            : Lossy
    Stream size                 : 436 MiB (12%)
    Title                       : Español Latino ORG QLT [CinemaniaHDD]
    Language                    : Spanish
    Default                     : Yes
    Forced                      : Yes

    Audio #2
    ID                          : 3
    Format                      : AC-3
    Format/Info                 : Audio Coding 3
    Commercial name             : Dolby Digital
    Codec ID                    : A_AC3
    Duration                    : 1 h 19 min
    Bit rate mode               : Constant
    Bit rate                    : 256 kb/s
    Channel(s)                  : 2 channels
    Channel layout              : L R
    Sampling rate               : 48.0 kHz
    Frame rate                  : 31.250 FPS (1536 SPF)
    Compression mode            : Lossy
    Stream size                 : 145 MiB (4%)
    Title                       : Español Latino REDUB WLD [CinemaniaHDD]
    Language                    : Spanish
    Service kind                : Complete Main
    Default                     : No
    Forced                      : No

    Audio #3
    ID                          : 4
    Format                      : DTS
    Format/Info                 : Digital Theater Systems
    Codec ID                    : A_DTS
    Duration                    : 1 h 19 min
    Bit rate mode               : Constant
    Bit rate                    : 1 509 kb/s
    Channel(s)                  : 6 channels
    Channel layout              : C L R Ls Rs LFE
    Sampling rate               : 48.0 kHz
    Frame rate                  : 93.750 FPS (512 SPF)
    Bit depth                   : 24 bits
    Compression mode            : Lossy
    Stream size                 : 857 MiB (24%)
    Title                       : Ingles [CinemaniaHDD]
    Language                    : English
    Default                     : No
    Forced                      : No

    Text #1
    ID                          : 5
    Format                      : PGS
    Muxing mode                 : zlib
    Codec ID                    : S_HDMV/PGS
    Codec ID/Info               : Picture based subtitle format used on BDs/HD-DVDs
    Duration                    : 1 h 11 min
    Bit rate                    : 12.0 kb/s
    Count of elements           : 736
    Stream size                 : 6.11 MiB (0%)
    Title                       : Español-PGS [CinemaniaHDD]
    Language                    : Spanish
    Default                     : No
    Forced                      : No

    Text #2
    ID                          : 6
    Format                      : PGS
    Muxing mode                 : zlib
    Codec ID                    : S_HDMV/PGS
    Codec ID/Info               : Picture based subtitle format used on BDs/HD-DVDs
    Duration                    : 1 h 11 min
    Bit rate                    : 16.3 kb/s
    Count of elements           : 1076
    Stream size                 : 8.31 MiB (0%)
    Title                       : Ingles-PGS [CinemaniaHDD]
    Language                    : English
    Default                     : No
    Forced                      : No

    Text #3
    ID                          : 7
    Format                      : UTF-8
    Codec ID                    : S_TEXT/UTF8
    Codec ID/Info               : UTF-8 Plain Text
    Duration                    : 27 min 42 s
    Bit rate                    : 0 b/s
    Count of elements           : 6
    Stream size                 : 173 Bytes (0%)
    Title                       : Forzados-SRT [CinemaniaHDD]
    Language                    : Spanish
    Default                     : Yes
    Forced                      : Yes

    Text #4
    ID                          : 8
    Format                      : UTF-8
    Codec ID                    : S_TEXT/UTF8
    Codec ID/Info               : UTF-8 Plain Text
    Duration                    : 1 h 11 min
    Bit rate                    : 21 b/s
    Count of elements           : 499
    Stream size                 : 11.2 KiB (0%)
    Title                       : Español-SRT [CinemaniaHDD]
    Language                    : Spanish
    Default                     : No
    Forced                      : No

    Menu
    00:00:00.000                : 00:00:00.000
    00:04:06.913                : 00:04:06.913
    00:09:51.174                : 00:09:51.174
    00:12:08.436                : 00:12:08.436
    00:15:48.072                : 00:15:48.072
    00:17:36.889                : 00:17:36.889
    00:20:38.154                : 00:20:38.154
    00:24:20.000                : 00:24:20.000
    00:29:07.746                : 00:29:07.746
    00:33:38.683                : 00:33:38.683
    00:35:48.563                : 00:35:48.563
    00:40:03.860                : 00:40:03.860
    00:44:46.183                : 00:44:46.183
    00:48:05.382                : 00:48:05.382
    00:52:49.833                : 00:52:49.833
    00:55:05.427                : 00:55:05.427
    00:59:44.498                : 00:59:44.498
    01:03:40.567                : 01:03:40.567
    01:08:27.437                : 01:08:27.437
    01:12:16.332                : 01:12:16.332

  • Peso: 3.42 GiB

Sinopsis

Descargar Nueve (2009) Full HD 1080p Latino. Aventura post-apocalíptica protagonizada por nueve muñecos de trapo que deberán enfrentarse a unas máquinas gigantes si quieren preservar el futuro de la civilización. La historia transcurre en un futuro muy próximo. El invento conocido como la Gran Máquina activa y aporta energía a las máquinas que se han alzado contra la raza humana, diezmando a la población, antes de empezar a apagarse. El mundo pronto quedará destruido, pero un grupo de pequeños seres intenta salvar lo poco que queda de la civilización.

Audio Español Latino DTS 5.1 Doblaje Original Quality + AC3 2.0 Redub Whiland – Ingles DTS 5.1 Bluray

Ficha técnica

Video trailer de la película

Enlaces de descarga

Rip de Bluray

Descargar Nueve (2009) Full HD 1080p Latino




Aportes de DPeliculasHDmega la pass es:dpeliculashdmega.org Aportes de CinemaniaHD la pass es:cinemaniahdd.com

Películas relacionadas

descargar Nueve (2009) Full HD 1080p Latino Full 1080p 1080p gratis, Nueve (2009) Full HD 1080p Latino Full 1080p mega 1 link, Nueve (2009) Full HD 1080p Latino Full 1080p pelicula completa, descargar Nueve (2009) Full HD 1080p Latino Full 1080p gratis en mega.

Nueve (2009) Full HD 1080p Latino pelicula full hd, Nueve (2009) Full HD 1080p Latino mega latino, Nueve (2009) Full HD 1080p Latino 4k latino, Nueve (2009) Full HD 1080p Latino pelicula completa, Nueve (2009) Full HD 1080p Latino descargar gratis, descargar Nueve (2009) Full HD 1080p Latino pelicula latino, Nueve (2009) Full HD 1080p Latino 1 link mega, Nueve (2009) Full HD 1080p Latino 1 link google drive, Nueve (2009) Full HD 1080p Latino hd 1080p latino.
Comentarios 0