×

¿Problemas para descargar con Mozilla, EDGE? Deshabilita la opción "Abrir vinculos en una pestaña nueva" tal como lo muestra ésta imagen.

8 Mile (2002) REMUX 4K HDR Latino – CMHDD

346 vistas

Información de 8 Mile (2002) REMUX 4K HDR Latino – CMHDD

Datos de la película

  • Calidad: 4K HDR
  • Audio: Español Latino DTS 5.1 BLURAY - Ingles DTS-HD Master 7.1 BLURAY
  • Subtitulos: Español Latino PGS
  • Resolución: 3840x2140p
  • Formato: MKV
  • Codec: H.264
  • Encoder: Dracarys
  • Mediainfo: Clic para Mostrar Datos Ver
  • Format                      : Matroska
    Format version              : Version 4
    File size                   : 61.8 GiB
    Duration                    : 1 h 50 min
    Overall bit rate mode       : Variable
    Overall bit rate            : 80.1 Mb/s
    Movie name                  : 8 Mile (2002) REMUX 4K HDR Latino – CMHDD
    Encoded date                : UTC 2024-06-09 22:04:32
    Writing application         : mkvmerge v47.0.0 ('Black Flag') 64-bit
    Writing library             : libebml v1.3.10 + libmatroska v1.5.2

    Video
    ID                          : 1
    Format                      : HEVC
    Format/Info                 : High Efficiency Video Coding
    Format profile              : Main 10@L5.1@High
    HDR format                  : SMPTE ST 2086, HDR10 compatible
    Codec ID                    : V_MPEGH/ISO/HEVC
    Duration                    : 1 h 50 min
    Bit rate                    : 72.4 Mb/s
    Width                       : 3 840 pixels
    Height                      : 2 160 pixels
    Display aspect ratio        : 16:9
    Frame rate mode             : Constant
    Frame rate                  : 23.976 (24000/1001) FPS
    Color space                 : YUV
    Chroma subsampling          : 4:2:0 (Type 2)
    Bit depth                   : 10 bits
    Bits/(Pixel*Frame)          : 0.364
    Stream size                 : 55.9 GiB (90%)
    Writing library             : ATEME Titan File 3.9.6 (4.9.6.2)        
    Language                    : English
    Default                     : No
    Forced                      : No
    Color range                 : Limited
    Color primaries             : BT.2020
    Transfer characteristics    : PQ
    Matrix coefficients         : BT.2020 non-constant
    Mastering display color pri : Display P3
    Mastering display luminance : min: 0.0050 cd/m2, max: 1000 cd/m2
    Maximum Content Light Level : 1000 cd/m2
    Maximum Frame-Average Light : 110 cd/m2

    Audio #1
    ID                          : 2
    Format                      : AC-3
    Format/Info                 : Audio Coding 3
    Commercial name             : Dolby Digital
    Codec ID                    : A_AC3
    Duration                    : 1 h 50 min
    Bit rate mode               : Constant
    Bit rate                    : 640 kb/s
    Channel(s)                  : 6 channels
    Channel layout              : L R C LFE Ls Rs
    Sampling rate               : 48.0 kHz
    Frame rate                  : 31.250 FPS (1536 SPF)
    Compression mode            : Lossy
    Stream size                 : 506 MiB (1%)
    Language                    : Spanish
    Service kind                : Complete Main
    Default                     : Yes
    Forced                      : Yes

    Audio #2
    ID                          : 3
    Format                      : DTS
    Format/Info                 : Digital Theater Systems
    Codec ID                    : A_DTS
    Duration                    : 1 h 50 min
    Bit rate mode               : Constant
    Bit rate                    : 768 kb/s
    Channel(s)                  : 6 channels
    Channel layout              : C L R Ls Rs LFE
    Sampling rate               : 48.0 kHz
    Frame rate                  : 93.750 FPS (512 SPF)
    Bit depth                   : 24 bits
    Compression mode            : Lossy
    Stream size                 : 607 MiB (1%)
    Language                    : Spanish
    Default                     : No
    Forced                      : No

    Audio #3
    ID                          : 4
    Format                      : AC-3
    Format/Info                 : Audio Coding 3
    Commercial name             : Dolby Digital
    Codec ID                    : A_AC3
    Duration                    : 1 h 50 min
    Bit rate mode               : Constant
    Bit rate                    : 640 kb/s
    Channel(s)                  : 6 channels
    Channel layout              : L R C LFE Ls Rs
    Sampling rate               : 48.0 kHz
    Frame rate                  : 31.250 FPS (1536 SPF)
    Compression mode            : Lossy
    Stream size                 : 506 MiB (1%)
    Language                    : English
    Service kind                : Complete Main
    Default                     : No
    Forced                      : No

    Audio #4
    ID                          : 5
    Format                      : DTS XLL X
    Format/Info                 : Digital Theater Systems
    Commercial name             : DTS-HD Master Audio
    Codec ID                    : A_DTS
    Duration                    : 1 h 50 min
    Bit rate mode               : Variable
    Bit rate                    : 5 650 kb/s
    Channel(s)                  : 8 channels
    Channel(s)_Original         : Object Based
    ChannelLayout_Original      : Object Based
    Sampling rate               : 48.0 kHz
    Frame rate                  : 93.750 FPS (512 SPF)
    Bit depth                   : 24 bits
    Stream size                 : 4.36 GiB (7%)
    Language                    : English
    Default                     : No
    Forced                      : No

    Text #1
    ID                          : 6
    Format                      : UTF-8
    Codec ID                    : S_TEXT/UTF8
    Codec ID/Info               : UTF-8 Plain Text
    Duration                    : 1 h 42 min
    Bit rate                    : 59 b/s
    Count of elements           : 1426
    Stream size                 : 44.6 KiB (0%)
    Language                    : Spanish
    Default                     : No
    Forced                      : Yes

    Text #2
    ID                          : 7
    Format                      : PGS
    Muxing mode                 : zlib
    Codec ID                    : S_HDMV/PGS
    Codec ID/Info               : Picture based subtitle format used on BDs/HD-DVDs
    Duration                    : 1 h 38 min
    Bit rate                    : 13.9 kb/s
    Count of elements           : 928
    Stream size                 : 9.73 MiB (0%)
    Title                       : Forzados
    Language                    : Spanish
    Default                     : Yes
    Forced                      : Yes

    Text #3
    ID                          : 8
    Format                      : PGS
    Muxing mode                 : zlib
    Codec ID                    : S_HDMV/PGS
    Codec ID/Info               : Picture based subtitle format used on BDs/HD-DVDs
    Duration                    : 1 h 48 min
    Bit rate                    : 33.9 kb/s
    Count of elements           : 2854
    Stream size                 : 26.2 MiB (0%)
    Language                    : Spanish
    Default                     : No
    Forced                      : No

    Menu
    00:00:00.000                : en:Chapter 01
    00:03:12.609                : en:Chapter 02
    00:10:08.316                : en:Chapter 03
    00:14:52.391                : en:Chapter 04
    00:19:51.940                : en:Chapter 05
    00:23:31.701                : en:Chapter 06
    00:27:21.556                : en:Chapter 07
    00:34:41.537                : en:Chapter 08
    00:39:00.129                : en:Chapter 09
    00:46:49.848                : en:Chapter 10
    00:52:55.005                : en:Chapter 11
    01:01:48.496                : en:Chapter 12
    01:06:03.084                : en:Chapter 13
    01:11:44.800                : en:Chapter 14
    01:13:48.632                : en:Chapter 15
    01:16:45.434                : en:Chapter 16
    01:24:31.399                : en:Chapter 17
    01:27:57.105                : en:Chapter 18
    01:38:19.810                : en:Chapter 19
    01:43:31.038                : en:Chapter 20
    01:45:29.781                : en:Chapter 21

     

  • Peso: 61.8 GiB

Sinopsis

Detroit, 1995. La promesa de potencia industrial se ha transformado en un hervidero de conflictos económicos y raciales. La 8 Mile Road, que recorre el perímetro de la ciudad, marca ahora la frontera entre lo urbano y lo suburbano; entre lo blanco y lo negro. Allí, hay una larga tradición de creatividad negra. Ésta ha tenido siempre unas raíces obreras y ha expresado sin filtros su dura realidad. En los clubs, los mejores raperos se enfrentan en duelos verbales para conseguir el respeto de sus colegas.

Ficha técnica

Video trailer de la película

Enlaces de descarga

Rip de Bluray

Descargar 8 Mile (2002) REMUX 4K HDR Latino – CMHDD




Aportes de DPeliculasHDmega la pass es:dpeliculashdmega.org Aportes de CinemaniaHD la pass es:cinemaniahdd.com Aportes recientes:cinemaniahdd.net
Guardado en : Drama , Música

Películas relacionadas

descargar 8 Mile (2002) REMUX 4K HDR Latino – CMHDD 4K HDR 1080p gratis, 8 Mile (2002) REMUX 4K HDR Latino – CMHDD 4K HDR mega 1 link, 8 Mile (2002) REMUX 4K HDR Latino – CMHDD 4K HDR pelicula completa, descargar 8 Mile (2002) REMUX 4K HDR Latino – CMHDD 4K HDR gratis en mega.

8 Mile (2002) REMUX 4K HDR Latino – CMHDD pelicula full hd, 8 Mile (2002) REMUX 4K HDR Latino – CMHDD mega latino, 8 Mile (2002) REMUX 4K HDR Latino – CMHDD 4k latino, 8 Mile (2002) REMUX 4K HDR Latino – CMHDD pelicula completa, 8 Mile (2002) REMUX 4K HDR Latino – CMHDD descargar gratis, descargar 8 Mile (2002) REMUX 4K HDR Latino – CMHDD pelicula latino, 8 Mile (2002) REMUX 4K HDR Latino – CMHDD 1 link mega, 8 Mile (2002) REMUX 4K HDR Latino – CMHDD 1 link google drive, 8 Mile (2002) REMUX 4K HDR Latino – CMHDD hd 1080p latino.
Comentarios 0