×

¿Problemas para descargar con Mozilla, EDGE? Deshabilita la opción "Abrir vinculos en una pestaña nueva" tal como lo muestra ésta imagen.

Millonario Sin Amor (2021) AMZN WEB-DL 1080p Latino

159 vistas

Información de Millonario Sin Amor (2021) AMZN WEB-DL 1080p Latino

Datos de la película

  • Calidad: 1080p
  • Audio: Español Latino AC3 2.0
  • Subtitulos: Español Latino SRT
  • Resolución: 1920x1080
  • Formato: MKV
  • Codec: H.264
  • Encoder: cinemaniahdd
  • Mediainfo: Clic para Mostrar Datos Ver
  • Millonario Sin Amor (2021) AMZN WEB-DL 1080p Latino [CNMNHDD].mkv
    Format                      : Matroska
    Format version              : Version 4
    File size                   : 5.16 GiB
    Duration                    : 1 h 32 min
    Overall bit rate            : 7 966 kb/s
    Movie name                  : Millonario Sin Amor (2021) - CinemaniaHDD.Net
    Encoded date                : UTC 2021-11-22 01:46:36
    Writing application         : mkvmerge v56.1.0 ('My Friend') 64-bit
    Writing library             : libebml v1.4.2 + libmatroska v1.6.4

    Video
    ID                          : 1
    Format                      : AVC
    Format/Info                 : Advanced Video Codec
    Format profile              : High@L4
    Format settings             : CABAC / 4 Ref Frames
    Format settings, CABAC      : Yes
    Format settings, Reference  : 4 frames
    Codec ID                    : V_MPEG4/ISO/AVC
    Duration                    : 1 h 32 min
    Bit rate mode               : Constant
    Bit rate                    : 7 356 kb/s
    Nominal bit rate            : 10 000 kb/s
    Width                       : 1 920 pixels
    Height                      : 1 080 pixels
    Display aspect ratio        : 16:9
    Frame rate mode             : Constant
    Frame rate                  : 23.976 (24000/1001) FPS
    Color space                 : YUV
    Chroma subsampling          : 4:2:0
    Bit depth                   : 8 bits
    Scan type                   : Progressive
    Bits/(Pixel*Frame)          : 0.148
    Stream size                 : 4.76 GiB (92%)
    Title                       : CinemaniaHDD
    Default                     : Yes
    Forced                      : No
    Color range                 : Limited
    Color primaries             : BT.709
    Transfer characteristics    : BT.709
    Matrix coefficients         : BT.709

    Audio #1
    ID                          : 2
    Format                      : AC-3
    Format/Info                 : Audio Coding 3
    Commercial name             : Dolby Digital
    Codec ID                    : A_AC3
    Duration                    : 1 h 32 min
    Bit rate mode               : Constant
    Bit rate                    : 384 kb/s
    Channel(s)                  : 2 channels
    Channel layout              : L R
    Sampling rate               : 48.0 kHz
    Frame rate                  : 31.250 FPS (1536 SPF)
    Compression mode            : Lossy
    Stream size                 : 255 MiB (5%)
    Title                       : Español latino [CinemaniaHDD]
    Language                    : Spanish
    Service kind                : Complete Main
    Default                     : Yes
    Forced                      : No

    Audio #2
    ID                          : 3
    Format                      : E-AC-3
    Format/Info                 : Enhanced AC-3
    Commercial name             : Dolby Digital Plus
    Codec ID                    : A_EAC3
    Duration                    : 1 h 32 min
    Bit rate mode               : Constant
    Bit rate                    : 224 kb/s
    Channel(s)                  : 2 channels
    Channel layout              : L R
    Sampling rate               : 48.0 kHz
    Frame rate                  : 31.250 FPS (1536 SPF)
    Bit depth                   : 32 bits
    Compression mode            : Lossy
    Stream size                 : 148 MiB (3%)
    Title                       : Español latino / EAC3 [CinemaniaHDD]
    Language                    : Spanish
    Service kind                : Complete Main
    Default                     : No
    Forced                      : No

    Text #1
    ID                          : 4
    Format                      : UTF-8
    Codec ID                    : S_TEXT/UTF8
    Codec ID/Info               : UTF-8 Plain Text
    Duration                    : 1 h 32 min
    Bit rate                    : 84 b/s
    Count of elements           : 2161
    Stream size                 : 57.1 KiB (0%)
    Title                       : Español latino [CinemaniaHDD]
    Language                    : Spanish
    Default                     : No
    Forced                      : No

    Text #2
    ID                          : 5
    Format                      : UTF-8
    Codec ID                    : S_TEXT/UTF8
    Codec ID/Info               : UTF-8 Plain Text
    Duration                    : 1 h 32 min
    Bit rate                    : 86 b/s
    Count of elements           : 2269
    Stream size                 : 58.8 KiB (0%)
    Title                       : Español latino / SDH [CinemaniaHDD]
    Language                    : Spanish
    Default                     : No
    Forced                      : No

     

  • Peso: 5.16 GiB

Sinopsis

Un ejecutivo millonario y solitario, quien es hechizado por Daniela, una actriz aspirante que lo hace mudarse a un vecindario de bajos recursos con el punto de ganarle en corazón.

Ficha técnica

  • Titulo original: Millonario Sin Amor
  • Fecha de lanzamiento: 01-09-2021 (Mexico, United States of America)
  • Director: Jaime Segura
  • Género: Comedia, Romance

Video trailer de la película

Enlaces de descarga

Rip de Bluray

Descargar Millonario Sin Amor (2021) AMZN WEB-DL 1080p Latino




Aportes de DPeliculasHDmega la pass es:dpeliculashdmega.org Aportes de CinemaniaHD la pass es:cinemaniahdd.com
Guardado en : Comedia , Romance

Películas relacionadas

  • DC Liga De Supermascotas (2022) HD 1080p Latino

    DC Liga De Supermascotas (2022) HD 1080p Latino

    2022
    DC Liga De Supermascotas (2022) HD 1080p Latino

    1h 45m 2022

    Descargar DC Liga De Supermascotas (2022) HD 1080p Latino. Krypto el Superperro y Superman son amigos...

    Director: Sam Levine

    Género: Acción

    Actores: Yvette Nicole Brown

  • Rick and Morty (2022) Temporada 6 WEB-DL 1080p Latino

    Rick and Morty (2022) Temporada 6 WEB-DL 1080p Latino

    2013
    Rick and Morty (2022) Temporada 6 WEB-DL 1080p Latino

    0h 22m 2013

    Comedia animada que narra las aventuras de un científico loco Rick Sánchez, que regresa después de...

    Director: Justin Roiland

    Género: Action & Adventure

    Actores: Spencer Grammer

  • Tremors (1990) REMUX 4K HDR Latino – CMHDD

    Tremors (1990) REMUX 4K HDR Latino – CMHDD

    1990
    Tremors (1990) REMUX 4K HDR Latino – CMHDD

    1h 35m 1990

    En Perfección, un pequeño pueblo al borde del desierto de Nevada, algo parece suceder debajo de la...

    Director: Susan Bierbaum

    Género: Acción

    Actores: Victor Wong

descargar Millonario Sin Amor (2021) AMZN WEB-DL 1080p Latino 1080p 1080p gratis, Millonario Sin Amor (2021) AMZN WEB-DL 1080p Latino 1080p mega 1 link, Millonario Sin Amor (2021) AMZN WEB-DL 1080p Latino 1080p pelicula completa, descargar Millonario Sin Amor (2021) AMZN WEB-DL 1080p Latino 1080p gratis en mega.

Millonario Sin Amor (2021) AMZN WEB-DL 1080p Latino pelicula full hd, Millonario Sin Amor (2021) AMZN WEB-DL 1080p Latino mega latino, Millonario Sin Amor (2021) AMZN WEB-DL 1080p Latino 4k latino, Millonario Sin Amor (2021) AMZN WEB-DL 1080p Latino pelicula completa, Millonario Sin Amor (2021) AMZN WEB-DL 1080p Latino descargar gratis, descargar Millonario Sin Amor (2021) AMZN WEB-DL 1080p Latino pelicula latino, Millonario Sin Amor (2021) AMZN WEB-DL 1080p Latino 1 link mega, Millonario Sin Amor (2021) AMZN WEB-DL 1080p Latino 1 link google drive, Millonario Sin Amor (2021) AMZN WEB-DL 1080p Latino hd 1080p latino.
Comentarios 0