×

¿Problemas para descargar con Mozilla, EDGE? Deshabilita la opción "Abrir vinculos en una pestaña nueva" tal como lo muestra ésta imagen.

7500 (2019) 4K UHD HDR Web-DL Latino

409 vistas

Información de 7500 (2019) 4K UHD HDR Web-DL Latino

Datos de la película

  • Calidad: WEBDL
  • Audio: Español Latino E-AC3 5.1 AMAZON - Ingles E-AC3 5.1 AMAZON
  • Subtitulos: Español Latino SRT- FORZADOS SRT
  • Resolución: 3840x1600p
  • Formato: MKV
  • Codec: HEVC
  • Encoder: Melkor
  • Mediainfo: Clic para Mostrar Datos Ver
  • 7500 (2019) UHD HDR WEB Latino.mkv
    Format                      : Matroska
    Format version              : Version 4
    File size                   : 10.0 GiB
    Duration                    : 1 h 32 min
    Overall bit rate            : 15.4 Mb/s
    Movie name                  : 7500 (2019) CinemaniaHDD.Net
    Encoded date                : UTC 2020-10-04 05:24:28
    Writing application         : mkvmerge v46.0.0 ('No Deeper Escape') 64-bit
    Writing library             : libebml v1.3.10 + libmatroska v1.5.2
    Attachments                 : CINEMANIAHD.png

    Video
    ID                          : 1
    Format                      : HEVC
    Format/Info                 : High Efficiency Video Coding
    Format profile              : Main 10@L5@Main
    HDR format                  : SMPTE ST 2094 App 4, Version 0
    Codec ID                    : V_MPEGH/ISO/HEVC
    Duration                    : 1 h 32 min
    Bit rate                    : 14.2 Mb/s
    Width                       : 3 840 pixels
    Height                      : 1 600 pixels
    Display aspect ratio        : 2.40:1
    Frame rate mode             : Constant
    Frame rate                  : 23.976 (24000/1001) FPS
    Standard                    : NTSC
    Color space                 : YUV
    Chroma subsampling          : 4:2:0 (Type 2)
    Bit depth                   : 10 bits
    Bits/(Pixel*Frame)          : 0.096
    Stream size                 : 9.17 GiB (92%)
    Title                       : Web 2160p HDR [CinemaniaHDD]
    Default                     : Yes
    Forced                      : No
    Color range                 : Limited
    Color primaries             : BT.2020
    Transfer characteristics    : PQ
    Matrix coefficients         : BT.2020 non-constant
    Mastering display color pri : Display P3
    Mastering display luminance : min: 0.0001 cd/m2, max: 1000 cd/m2
    Maximum Content Light Level : 139 cd/m2
    Maximum Frame-Average Light : 1251 cd/m2

    Audio #1
    ID                          : 2
    Format                      : E-AC-3
    Format/Info                 : Enhanced AC-3
    Commercial name             : Dolby Digital Plus
    Codec ID                    : A_EAC3
    Duration                    : 1 h 32 min
    Bit rate mode               : Constant
    Bit rate                    : 640 kb/s
    Channel(s)                  : 6 channels
    Channel layout              : L R C LFE Ls Rs
    Sampling rate               : 48.0 kHz
    Frame rate                  : 31.250 FPS (1536 SPF)
    Compression mode            : Lossy
    Stream size                 : 425 MiB (4%)
    Title                       : Español Latino [CinemaniaHDD]
    Language                    : Spanish
    Service kind                : Complete Main
    Default                     : Yes
    Forced                      : No

    Audio #2
    ID                          : 3
    Format                      : E-AC-3
    Format/Info                 : Enhanced AC-3
    Commercial name             : Dolby Digital Plus
    Codec ID                    : A_EAC3
    Duration                    : 1 h 32 min
    Bit rate mode               : Constant
    Bit rate                    : 640 kb/s
    Channel(s)                  : 6 channels
    Channel layout              : L R C LFE Ls Rs
    Sampling rate               : 48.0 kHz
    Frame rate                  : 31.250 FPS (1536 SPF)
    Compression mode            : Lossy
    Stream size                 : 425 MiB (4%)
    Title                       : Ingles [CinemaniaHDD]
    Language                    : English
    Service kind                : Complete Main
    Default                     : No
    Forced                      : No

    Text #1
    ID                          : 4
    Format                      : UTF-8
    Codec ID                    : S_TEXT/UTF8
    Codec ID/Info               : UTF-8 Plain Text
    Duration                    : 1 h 24 min
    Bit rate                    : 18 b/s
    Count of elements           : 363
    Stream size                 : 11.2 KiB (0%)
    Title                       : Forzados-SRT [CinemaniaHDD]
    Language                    : Spanish
    Default                     : Yes
    Forced                      : No

    Text #2
    ID                          : 5
    Format                      : UTF-8
    Codec ID                    : S_TEXT/UTF8
    Codec ID/Info               : UTF-8 Plain Text
    Duration                    : 1 h 31 min
    Bit rate                    : 49 b/s
    Count of elements           : 1132
    Stream size                 : 33.6 KiB (0%)
    Title                       : Español-SRT [CinemaniaHDD]
    Language                    : Spanish
    Default                     : No
    Forced                      : No

    Text #3
    ID                          : 6
    Format                      : UTF-8
    Codec ID                    : S_TEXT/UTF8
    Codec ID/Info               : UTF-8 Plain Text
    Duration                    : 1 h 21 min
    Bit rate                    : 18 b/s
    Count of elements           : 339
    Stream size                 : 11.0 KiB (0%)
    Title                       : Ingles-SRT [CinemaniaHDD]
    Language                    : English
    Default                     : No
    Forced                      : No

    Menu
    00:00:00.000                : en:1. Studio Logo
    00:00:55.000                : en:Scene 2
    00:03:15.000                : en:3. Title Sequence
    00:03:22.000                : en:Scene 4
    00:10:35.000                : en:Scene 5
    00:16:00.000                : en:Scene 6
    00:28:56.000                : en:Scene 7
    00:39:27.000                : en:Scene 8
    00:43:53.000                : en:Scene 9
    00:53:06.000                : en:Scene 10
    01:03:30.000                : en:Scene 11
    01:10:24.000                : en:Scene 12
    01:15:42.000                : en:Scene 13
    01:21:22.000                : en:Scene 14
    01:25:54.000                : en:15. End Credits

  • Peso: 10.0 GiB

Sinopsis

Descargar 7500 (2019) 4K UHD HDR Web-DL Latino. Tobias es el joven copiloto de un avión que es secuestrado por unos terroristas, quedando él como único negociador con los atacantes desde dentro de la cabina sellada. Cuando los secuestradores matan a un pasajero y amenazan con matar a más gente inocente si Tobias no abre la puerta de la cabina, este hombre normal se enfrentará a la prueba de su vida.

Ficha técnica

Video trailer de la película

Enlaces de descarga

Rip de Bluray

Descargar 7500 (2019) 4K UHD HDR Web-DL Latino




Aportes de DPeliculasHDmega la pass es:dpeliculashdmega.org Aportes de CinemaniaHD la pass es:cinemaniahdd.com
Guardado en : 4K HDR , 4K UHD , Acción , Drama , Suspenso

Películas relacionadas

descargar 7500 (2019) 4K UHD HDR Web-DL Latino WEBDL 1080p gratis, 7500 (2019) 4K UHD HDR Web-DL Latino WEBDL mega 1 link, 7500 (2019) 4K UHD HDR Web-DL Latino WEBDL pelicula completa, descargar 7500 (2019) 4K UHD HDR Web-DL Latino WEBDL gratis en mega.

7500 (2019) 4K UHD HDR Web-DL Latino pelicula full hd, 7500 (2019) 4K UHD HDR Web-DL Latino mega latino, 7500 (2019) 4K UHD HDR Web-DL Latino 4k latino, 7500 (2019) 4K UHD HDR Web-DL Latino pelicula completa, 7500 (2019) 4K UHD HDR Web-DL Latino descargar gratis, descargar 7500 (2019) 4K UHD HDR Web-DL Latino pelicula latino, 7500 (2019) 4K UHD HDR Web-DL Latino 1 link mega, 7500 (2019) 4K UHD HDR Web-DL Latino 1 link google drive, 7500 (2019) 4K UHD HDR Web-DL Latino hd 1080p latino.
Comentarios 0