×

¿Problemas para descargar con Mozilla, EDGE? Deshabilita la opción "Abrir vinculos en una pestaña nueva" tal como lo muestra ésta imagen.

65: Al borde de la extinción (2023) WEB-DL 4K UHD HDR/DV Latino

420 vistas

Información de 65: Al borde de la extinción (2023) WEB-DL 4K UHD HDR/DV Latino

Datos de la película

  • Calidad: WEBDL
  • Audio: Español Latino AC3 5.1 WEB-DL - Ingles AC3 5.1 WEB-DL
  • Subtitulos: Español Latino SRT- FORZADOS SRT
  • Resolución: 3840x1604p
  • Formato: MKV
  • Codec: HEVC
  • Encoder: Melkor
  • Mediainfo: Clic para Mostrar Datos Ver
  • 65 (2023) WEB UHD HDR-DV Latino.mkv
    Format                      : Matroska
    Format version              : Version 4
    File size                   : 17.0 GiB
    Duration                    : 1 h 32 min
    Overall bit rate            : 26.2 Mb/s
    Movie name                  : 65 (2023) CinemaniaHDD.Net
    Encoded date                : UTC 2023-04-07 17:24:46
    Writing application         : mkvmerge v56.1.0 ('My Friend') 64-bit
    Writing library             : libebml v1.4.2 + libmatroska v1.6.4
    Attachments                 : CINEMANIAHD.png
    Site                        : CinemaniaHDD.Net
    Uploader                    : Melkor

    Video
    ID                          : 1
    Format                      : HEVC
    Format/Info                 : High Efficiency Video Coding
    Format profile              : Main 10@L5@High
    HDR format                  : Dolby Vision, Version 1.0, dvhe.08.06, BL+RPU, HDR10 compatible / SMPTE ST 2086, HDR10 compatible
    Codec ID                    : V_MPEGH/ISO/HEVC
    Duration                    : 1 h 32 min
    Bit rate                    : 24.3 Mb/s
    Width                       : 3 840 pixels
    Height                      : 1 604 pixels
    Display aspect ratio        : 2.40:1
    Frame rate mode             : Constant
    Frame rate                  : 23.976 (24000/1001) FPS
    Color space                 : YUV
    Chroma subsampling          : 4:2:0 (Type 2)
    Bit depth                   : 10 bits
    Bits/(Pixel*Frame)          : 0.165
    Stream size                 : 15.7 GiB (93%)
    Title                       : Web 2160p HDR [CinemaniaHDD]
    Language                    : English
    Default                     : Yes
    Forced                      : No
    Color range                 : Limited
    Color primaries             : BT.2020
    Transfer characteristics    : PQ
    Matrix coefficients         : BT.2020 non-constant
    Mastering display color pri : BT.2020
    Mastering display luminance : min: 0.0050 cd/m2, max: 1000 cd/m2
    Maximum Content Light Level : 900 cd/m2
    Maximum Frame-Average Light : 344 cd/m2

    Audio #1
    ID                          : 2
    Format                      : AC-3
    Format/Info                 : Audio Coding 3
    Commercial name             : Dolby Digital
    Codec ID                    : A_AC3
    Duration                    : 1 h 32 min
    Bit rate mode               : Constant
    Bit rate                    : 640 kb/s
    Channel(s)                  : 6 channels
    Channel layout              : L R C LFE Ls Rs
    Sampling rate               : 48.0 kHz
    Frame rate                  : 31.250 FPS (1536 SPF)
    Compression mode            : Lossy
    Stream size                 : 425 MiB (2%)
    Title                       : Español Latino AC3 [CinemaniaHDD]
    Language                    : Spanish
    Service kind                : Complete Main
    Default                     : Yes
    Forced                      : Yes

    Audio #2
    ID                          : 3
    Format                      : E-AC-3
    Format/Info                 : Enhanced AC-3
    Commercial name             : Dolby Digital Plus
    Codec ID                    : A_EAC3
    Duration                    : 1 h 32 min
    Bit rate mode               : Constant
    Bit rate                    : 640 kb/s
    Channel(s)                  : 6 channels
    Channel layout              : L R C LFE Ls Rs
    Sampling rate               : 48.0 kHz
    Frame rate                  : 31.250 FPS (1536 SPF)
    Compression mode            : Lossy
    Stream size                 : 425 MiB (2%)
    Title                       : Español Latino EAC3 [CinemaniaHDD]
    Language                    : Spanish
    Service kind                : Complete Main
    Default                     : No
    Forced                      : No

    Audio #3
    ID                          : 4
    Format                      : E-AC-3
    Format/Info                 : Enhanced AC-3
    Commercial name             : Dolby Digital Plus
    Codec ID                    : A_EAC3
    Duration                    : 1 h 32 min
    Bit rate mode               : Constant
    Bit rate                    : 640 kb/s
    Channel(s)                  : 6 channels
    Channel layout              : L R C LFE Ls Rs
    Sampling rate               : 48.0 kHz
    Frame rate                  : 31.250 FPS (1536 SPF)
    Compression mode            : Lossy
    Delay relative to video     : 12 ms
    Stream size                 : 425 MiB (2%)
    Title                       : Ingles [CinemaniaHDD]
    Language                    : English
    Service kind                : Complete Main
    Default                     : No
    Forced                      : No

    Text #1
    ID                          : 5
    Format                      : UTF-8
    Codec ID                    : S_TEXT/UTF8
    Codec ID/Info               : UTF-8 Plain Text
    Duration                    : 1 h 31 min
    Bit rate                    : 0 b/s
    Count of elements           : 8
    Stream size                 : 239 Bytes (0%)
    Title                       : Forzados-SRT [CinemaniaHDD]
    Language                    : Spanish
    Default                     : Yes
    Forced                      : Yes

    Text #2
    ID                          : 6
    Format                      : UTF-8
    Codec ID                    : S_TEXT/UTF8
    Codec ID/Info               : UTF-8 Plain Text
    Duration                    : 1 h 31 min
    Bit rate                    : 13 b/s
    Count of elements           : 385
    Stream size                 : 9.17 KiB (0%)
    Title                       : Español-SRT [CinemaniaHDD]
    Language                    : Spanish
    Default                     : No
    Forced                      : No

    Text #3
    ID                          : 7
    Format                      : UTF-8
    Codec ID                    : S_TEXT/UTF8
    Codec ID/Info               : UTF-8 Plain Text
    Duration                    : 1 h 22 min
    Bit rate                    : 15 b/s
    Count of elements           : 389
    Stream size                 : 9.18 KiB (0%)
    Title                       : Ingles-SRT [CinemaniaHDD]
    Language                    : English
    Default                     : No
    Forced                      : No

  • Peso: 17.0 GiB

Sinopsis

Descargar 65: Al borde de la extinción (2023) WEB-DL 4K UHD HDR/DV Latino. Después de un catastrófico accidente en un planeta desconocido, el piloto Mills descubre rápidamente que realmente está varado en la Tierra… hace 65 millones de años. Ahora, con solo una oportunidad de rescate, Mills y la otra única superviviente, Koa, deberán abrirse camino a través del desconocido territorio plagado con peligrosas criaturas prehistóricas en una épica lucha por sobrevivir.

Ficha técnica

Video trailer de la película

Enlaces de descarga

Rip de Bluray

Descargar 65: Al borde de la extinción (2023) WEB-DL 4K UHD HDR/DV Latino




Aportes de DPeliculasHDmega la pass es:dpeliculashdmega.org Aportes de CinemaniaHD la pass es:cinemaniahdd.com Aportes recientes:cinemaniahdd.net

Películas relacionadas

  • Combate clandestino (2024) AMZN WEB-DL 1080p Latino

    Combate clandestino (2024) AMZN WEB-DL 1080p Latino

    2024
    Combate clandestino (2024) AMZN WEB-DL 1080p Latino

    1h 30m 2024

    Descargar Combate clandestino (2024) AMZN WEB-DL 1080p Latino. Un ex soldado a la deriva se convierte...

    Director: Christian Sesma

    Género: Acción

    Actores: Tyler Wombles

  • ¡Patos! (2023) HD 1080p Latino

    ¡Patos! (2023) HD 1080p Latino

    2023
    ¡Patos! (2023) HD 1080p Latino

    1h 23m 2023

    Descargar ¡Patos! (2023) HD 1080p Latino. Después de que una familia de patos migratorios aterriza...

    Director: Guy-Laurent Homsy

    Género: Acción

    Actores: Zeno Robinson

  • ¡Patos! (2023) PLACEBO Full HD 1080p Latino

    ¡Patos! (2023) PLACEBO Full HD 1080p Latino

    2023
    ¡Patos! (2023) PLACEBO Full HD 1080p Latino

    1h 23m 2023

    Descargar ¡Patos! (2023) PLACEBO Full HD 1080p Latino. Después de que una familia de patos migratorios...

    Director: Guy-Laurent Homsy

    Género: Acción

    Actores: Zeno Robinson

  • ¡Patos! (2023) REMUX 1080p Latino

    ¡Patos! (2023) REMUX 1080p Latino

    2023
    ¡Patos! (2023) REMUX 1080p Latino

    1h 23m 2023

    Descargar ¡Patos! (2023) REMUX 1080p Latino. Después de que una familia de patos migratorios aterriza...

    Director: Guy-Laurent Homsy

    Género: Acción

    Actores: Zeno Robinson

descargar 65: Al borde de la extinción (2023) WEB-DL 4K UHD HDR/DV Latino WEBDL 1080p gratis, 65: Al borde de la extinción (2023) WEB-DL 4K UHD HDR/DV Latino WEBDL mega 1 link, 65: Al borde de la extinción (2023) WEB-DL 4K UHD HDR/DV Latino WEBDL pelicula completa, descargar 65: Al borde de la extinción (2023) WEB-DL 4K UHD HDR/DV Latino WEBDL gratis en mega.

65: Al borde de la extinción (2023) WEB-DL 4K UHD HDR/DV Latino pelicula full hd, 65: Al borde de la extinción (2023) WEB-DL 4K UHD HDR/DV Latino mega latino, 65: Al borde de la extinción (2023) WEB-DL 4K UHD HDR/DV Latino 4k latino, 65: Al borde de la extinción (2023) WEB-DL 4K UHD HDR/DV Latino pelicula completa, 65: Al borde de la extinción (2023) WEB-DL 4K UHD HDR/DV Latino descargar gratis, descargar 65: Al borde de la extinción (2023) WEB-DL 4K UHD HDR/DV Latino pelicula latino, 65: Al borde de la extinción (2023) WEB-DL 4K UHD HDR/DV Latino 1 link mega, 65: Al borde de la extinción (2023) WEB-DL 4K UHD HDR/DV Latino 1 link google drive, 65: Al borde de la extinción (2023) WEB-DL 4K UHD HDR/DV Latino hd 1080p latino.
Comentarios 0