×

¿Problemas para descargar con Mozilla, EDGE? Deshabilita la opción "Abrir vinculos en una pestaña nueva" tal como lo muestra ésta imagen.

60 segundos (2000) REMUX 1080p Latino – CMHDD

425 vistas

Información de 60 segundos (2000) REMUX 1080p Latino – CMHDD

Datos de la película

  • Calidad: Full 1080p
  • Audio: Español Latino AC3 5.1 BLURAY - Ingles AC3 5.1 BLURAY
  • Subtitulos: Español Latino PGS
  • Resolución: 1920x1080p
  • Formato: MKV
  • Codec: H.264
  • Encoder: Dracarys
  • Mediainfo: Clic para Mostrar Datos Ver
  • Format                      : Matroska
    Format version              : Version 4
    File size                   : 16.6 GiB
    Duration                    : 1 h 57 min
    Overall bit rate mode       : Variable
    Overall bit rate            : 20.2 Mb/s
    Movie name                  : 60 segundos (2000) REMUX 1080p Latino - CMHDD
    Encoded date                : UTC 2020-05-26 22:08:43
    Writing application         : mkvmerge v46.0.0 ('No Deeper Escape') 64-bit
    Writing library             : libebml v1.3.10 + libmatroska v1.5.2

    Video
    ID                          : 1
    Format                      : MPEG Video
    Format version              : Version 2
    Format profile              : Main@High
    Format settings             : BVOP
    Format settings, BVOP       : Yes
    Format settings, Matrix     : Default
    Format settings, GOP        : M=3, N=12
    Codec ID                    : V_MPEG2
    Codec ID/Info               : MPEG 1 or 2 Video
    Duration                    : 1 h 57 min
    Bit rate mode               : Variable
    Bit rate                    : 19.1 Mb/s
    Maximum bit rate            : 28.0 Mb/s
    Width                       : 1 920 pixels
    Height                      : 1 080 pixels
    Display aspect ratio        : 16:9
    Frame rate mode             : Constant
    Frame rate                  : 23.976 (24000/1001) FPS
    Color space                 : YUV
    Chroma subsampling          : 4:2:0
    Bit depth                   : 8 bits
    Scan type                   : Progressive
    Compression mode            : Lossy
    Bits/(Pixel*Frame)          : 0.384
    Time code of first frame    : 00:59:59:00
    Time code source            : Group of pictures header
    GOP, Open/Closed            : Open
    GOP, Open/Closed of first f : Closed
    Stream size                 : 15.7 GiB (95%)
    Default                     : Yes
    Forced                      : No

    Audio #1
    ID                          : 2
    Format                      : AC-3
    Format/Info                 : Audio Coding 3
    Commercial name             : Dolby Digital
    Codec ID                    : A_AC3
    Duration                    : 1 h 57 min
    Bit rate mode               : Constant
    Bit rate                    : 448 kb/s
    Channel(s)                  : 6 channels
    Channel layout              : L R C LFE Ls Rs
    Sampling rate               : 48.0 kHz
    Frame rate                  : 31.250 FPS (1536 SPF)
    Compression mode            : Lossy
    Delay relative to video     : 1 s 0 ms
    Stream size                 : 378 MiB (2%)
    Language                    : Spanish
    Service kind                : Complete Main
    Default                     : Yes
    Forced                      : No

    Audio #2
    ID                          : 3
    Format                      : AC-3
    Format/Info                 : Audio Coding 3
    Commercial name             : Dolby Digital
    Codec ID                    : A_AC3
    Duration                    : 1 h 57 min
    Bit rate mode               : Constant
    Bit rate                    : 640 kb/s
    Channel(s)                  : 6 channels
    Channel layout              : L R C LFE Ls Rs
    Sampling rate               : 48.0 kHz
    Frame rate                  : 31.250 FPS (1536 SPF)
    Compression mode            : Lossy
    Stream size                 : 540 MiB (3%)
    Language                    : English
    Service kind                : Complete Main
    Default                     : No
    Forced                      : No

    Text #1
    ID                          : 4
    Format                      : PGS
    Muxing mode                 : zlib
    Codec ID                    : S_HDMV/PGS
    Codec ID/Info               : Picture based subtitle format used on BDs/HD-DVDs
    Duration                    : 1 h 50 min
    Bit rate                    : 28.7 kb/s
    Count of elements           : 2043
    Stream size                 : 22.8 MiB (0%)
    Language                    : Spanish
    Default                     : No
    Forced                      : No

    Text #2
    ID                          : 5
    Format                      : PGS
    Muxing mode                 : zlib
    Codec ID                    : S_HDMV/PGS
    Codec ID/Info               : Picture based subtitle format used on BDs/HD-DVDs
    Duration                    : 1 h 37 min
    Bit rate                    : 543 b/s
    Count of elements           : 40
    Stream size                 : 389 KiB (0%)
    Title                       : Forzados
    Language                    : Spanish
    Default                     : Yes
    Forced                      : No

    Menu
    00:00:00.000                : :Capítulo 01
    00:03:25.413                : :Capítulo 02
    00:08:46.067                : :Capítulo 03
    00:11:55.423                : :Capítulo 04
    00:16:55.180                : :Capítulo 05
    00:18:43.872                : :Capítulo 06
    00:23:37.332                : :Capítulo 07
    00:26:50.692                : :Capítulo 08
    00:31:59.250                : :Capítulo 09
    00:33:37.974                : :Capítulo 10
    00:36:24.432                : :Capítulo 11
    00:38:43.321                : :Capítulo 12
    00:39:34.705                : :Capítulo 13
    00:42:12.363                : :Capítulo 14
    00:44:19.865                : :Capítulo 15
    00:48:43.545                : :Capítulo 16
    00:52:56.506                : :Capítulo 17
    00:58:44.854                : :Capítulo 18
    01:06:15.888                : :Capítulo 19
    01:11:08.389                : :Capítulo 20
    01:13:44.169                : :Capítulo 21
    01:17:30.979                : :Capítulo 22
    01:19:39.524                : :Capítulo 23
    01:21:24.588                : :Capítulo 24
    01:26:48.119                : :Capítulo 25
    01:32:53.234                : :Capítulo 26
    01:34:19.653                : :Capítulo 27
    01:38:28.819                : :Capítulo 28
    01:40:07.418                : :Capítulo 29
    01:44:13.705                : :Capítulo 30
    01:48:40.263                : :Capítulo 31
    01:51:49.160                : :Capítulo 32

  • Peso: 16.6 GiB

Sinopsis

Hace ya tiempo que Randall «Memphis» Raines ha dejado atrás su pasado delictivo. Pero cuando se entera de que su hermano está en peligro, para salvarlo se ve obligado a hacer lo que mejor sabe hacer: robar coches: 50 coches y un contrato. Fanático del automovilismo, Memphis es una leyenda en el negocio de robo de coches. No se le resiste ninguna cerradura, ninguna alarma.

Ficha técnica

Video trailer de la película

Enlaces de descarga

Rip de Bluray

Descargar 60 segundos (2000) REMUX 1080p Latino – CMHDD


Aportes de DPeliculasHDmega la pass es:dpeliculashdmega.org Aportes de CinemaniaHD la pass es:cinemaniahdd.com
Guardado en : Acción , Crimen , Remux , Suspenso

Películas relacionadas

  • Tren Bala (2022) WEB-DL 4K UHD HDR Latino

    Tren Bala (2022) WEB-DL 4K UHD HDR Latino

    2022
    Tren Bala (2022) WEB-DL 4K UHD HDR Latino

    2h 7m 2022

    Descargar Tren Bala (2022) WEB-DL 4K UHD HDR Latino. El desafortunado asesino "Catarina" está decidido...

    Director: Paul Barry

    Género: 4K HDR

    Actores: Zooey Miyoshi

  • Tren Bala (2022) AMZN WEB-DL 1080p Latino

    Tren Bala (2022) AMZN WEB-DL 1080p Latino

    2022
    Tren Bala (2022) AMZN WEB-DL 1080p Latino

    2h 7m 2022

    Descargar Tren Bala (2022) AMZN WEB-DL 1080p Latino. Cinco asesinos a sueldo se encuentran a bordo de...

    Director: Paul Barry

    Género: Acción

    Actores: Zooey Miyoshi

  • Athena (2022) NF WEB-DL 1080p Latino

    Athena (2022) NF WEB-DL 1080p Latino

    2022
    Athena (2022) NF WEB-DL 1080p Latino

    1h 37m 2022

    Descargar Athena (2022) NF WEB-DL 1080p Latino. Horas después de la trágica muerte de su hermano menor...

    Director: Romain Gavras

    Género: Acción

    Actores: Tarek Haddaji

  • Lou (2022) NF WEB-DL 1080p Latino

    Lou (2022) NF WEB-DL 1080p Latino

    2022
    Lou (2022) NF WEB-DL 1080p Latino

    1h 47m 2022

    Descargar Lou (2022) NF WEB-DL 1080p Latino. Una mujer misteriosa y solitaria lucha contra las inclemencias...

    Director: Anna Foerster

    Género: Acción

    Actores: Toby Levins

descargar 60 segundos (2000) REMUX 1080p Latino – CMHDD Full 1080p 1080p gratis, 60 segundos (2000) REMUX 1080p Latino – CMHDD Full 1080p mega 1 link, 60 segundos (2000) REMUX 1080p Latino – CMHDD Full 1080p pelicula completa, descargar 60 segundos (2000) REMUX 1080p Latino – CMHDD Full 1080p gratis en mega.

60 segundos (2000) REMUX 1080p Latino – CMHDD pelicula full hd, 60 segundos (2000) REMUX 1080p Latino – CMHDD mega latino, 60 segundos (2000) REMUX 1080p Latino – CMHDD 4k latino, 60 segundos (2000) REMUX 1080p Latino – CMHDD pelicula completa, 60 segundos (2000) REMUX 1080p Latino – CMHDD descargar gratis, descargar 60 segundos (2000) REMUX 1080p Latino – CMHDD pelicula latino, 60 segundos (2000) REMUX 1080p Latino – CMHDD 1 link mega, 60 segundos (2000) REMUX 1080p Latino – CMHDD 1 link google drive, 60 segundos (2000) REMUX 1080p Latino – CMHDD hd 1080p latino.
Comentarios 0